<?xml version="1.0" standalone="no"?>
<!DOCTYPE svg PUBLIC "-//W3C//DTD SVG 1.1//EN" "http://www.w3.org/Graphics/SVG/1.1/DTD/svg11.dtd" >
<svg xmlns="http://www.w3.org/2000/svg" xmlns:xlink="http://www.w3.org/1999/xlink" version="1.1">
<metadata>
Created by FontForge 20190801 at Fri Jun 16 09:36:38 2023
 By root
Copyright 2022 The Figtree Project Authors (https://github.com/erikdkennedy/figtree)
</metadata>
<defs>
<font id="Figtree-Black" horiz-adv-x="640" >
  <font-face 
    font-family="Figtree Black"
    font-weight="900"
    font-stretch="normal"
    units-per-em="1000"
    panose-1="0 0 0 0 0 0 0 0 0 0"
    ascent="800"
    descent="-200"
    x-height="500"
    cap-height="700"
    bbox="-206 -220 1100 979"
    underline-thickness="50"
    underline-position="-125"
    unicode-range="U+000D-2265"
  />
<missing-glyph horiz-adv-x="708" 
d="M100 -170v960h508v-960h-508zM158 -112h392v844h-392v-844z" />
    <glyph glyph-name=".notdef" horiz-adv-x="708" 
d="M100 -170v960h508v-960h-508zM158 -112h392v844h-392v-844z" />
    <glyph glyph-name="A" unicode="A" horiz-adv-x="749" 
d="M546 0l-256 700h184l268 -700h-196zM7 0l268 700h184l-256 -700h-196zM133 112v163h484v-163h-484z" />
    <glyph glyph-name="Aacute" unicode="&#xc1;" horiz-adv-x="749" 
d="M546 0l-256 700h184l268 -700h-196zM7 0l268 700h184l-256 -700h-196zM133 112v163h484v-163h-484zM276 751l110 139h190l-130 -139h-170z" />
    <glyph glyph-name="Abreve" unicode="&#x102;" horiz-adv-x="749" 
d="M546 0l-256 700h184l268 -700h-196zM7 0l268 700h184l-256 -700h-196zM133 112v163h484v-163h-484zM376 742q-59 0 -105 20t-72 56t-26 82h164q0 -17 11 -28t28 -11t27.5 11t10.5 28h164q0 -46 -26 -82t-71.5 -56t-104.5 -20z" />
    <glyph glyph-name="uni01CD" unicode="&#x1cd;" horiz-adv-x="749" 
d="M546 0l-256 700h184l268 -700h-196zM7 0l268 700h184l-256 -700h-196zM133 112v163h484v-163h-484zM295 754v5l137 141h150l-127 -146h-160zM284 754l-127 146h150l137 -141v-5h-160z" />
    <glyph glyph-name="Acircumflex" unicode="&#xc2;" horiz-adv-x="749" 
d="M546 0l-256 700h184l268 -700h-196zM7 0l268 700h184l-256 -700h-196zM133 112v163h484v-163h-484zM432 765l-147 134v13h170l127 -147h-150zM157 765l127 147h170v-13l-147 -134h-150z" />
    <glyph glyph-name="Adieresis" unicode="&#xc4;" horiz-adv-x="749" 
d="M546 0l-256 700h184l268 -700h-196zM7 0l268 700h184l-256 -700h-196zM133 112v163h484v-163h-484zM510 769q-35 0 -61.5 26.5t-26.5 61.5t26.5 61.5t61.5 26.5t61.5 -26.5t26.5 -61.5t-26.5 -61.5t-61.5 -26.5zM240 769q-36 0 -62 26t-26 62t26 62t62 26t62 -26t26 -62
t-26 -62t-62 -26z" />
    <glyph glyph-name="Agrave" unicode="&#xc0;" horiz-adv-x="749" 
d="M546 0l-256 700h184l268 -700h-196zM7 0l268 700h184l-256 -700h-196zM133 112v163h484v-163h-484zM317 754l-132 147h190l112 -147h-170z" />
    <glyph glyph-name="Amacron" unicode="&#x100;" horiz-adv-x="749" 
d="M546 0l-256 700h184l268 -700h-196zM7 0l268 700h184l-256 -700h-196zM133 112v163h484v-163h-484zM205 749v151h340v-151h-340z" />
    <glyph glyph-name="Aogonek" unicode="&#x104;" horiz-adv-x="749" 
d="M546 0l-256 700h184l268 -700h-196zM7 0l268 700h184l-256 -700h-196zM133 112v163h484v-163h-484zM703 -212q-42 0 -77.5 14t-57 41.5t-21.5 68.5q0 29 17 52.5t40 35.5h138q-27 -17 -41.5 -37.5t-14.5 -37.5q0 -8 5 -14t13 -6t14 2t11 5l52 -108q-15 -9 -34 -12.5
t-44 -3.5z" />
    <glyph glyph-name="Aring" unicode="&#xc5;" horiz-adv-x="749" 
d="M546 0l-256 700h184l268 -700h-196zM7 0l268 700h184l-256 -700h-196zM133 112v163h484v-163h-484zM375 720q-37 0 -68.5 17.5t-50.5 46.5t-19 65q0 37 19 66t50.5 46.5t68.5 17.5t68 -17.5t50 -46.5t19 -66q0 -36 -19 -65t-50 -46.5t-68 -17.5zM375 816q32 0 32 33
q0 34 -32 34q-33 0 -33 -34q0 -33 33 -33z" />
    <glyph glyph-name="Atilde" unicode="&#xc3;" horiz-adv-x="749" 
d="M546 0l-256 700h184l268 -700h-196zM7 0l268 700h184l-256 -700h-196zM133 112v163h484v-163h-484zM456 734q-38 0 -58.5 11t-31.5 25t-21 25t-27 11q-7 0 -16 -6.5t-15 -32.5h-111q6 53 22.5 85t45 46t68.5 14q41 0 63.5 -11t34.5 -25t21 -25t24 -11q14 0 19 11.5
t7 27.5h111q-9 -70 -40.5 -107.5t-95.5 -37.5z" />
    <glyph glyph-name="AE" unicode="&#xc6;" horiz-adv-x="1033" 
d="M7 0l368 700h601v-170h-279v-97h225v-165h-225v-98h286v-170h-476v112h-234l-56 -112h-210zM355 275h152v255h-25z" />
    <glyph glyph-name="B" unicode="B" horiz-adv-x="614" 
d="M60 0v700h252q73 0 129 -22t88 -68t32 -117q0 -32 -18 -63t-50 -57q46 -25 71 -65.5t25 -99.5q0 -67 -31 -113.5t-85.5 -70.5t-125.5 -24h-287zM240 163h85q33 0 52.5 18t19.5 46t-19.5 44.5t-52.5 16.5h-85v-125zM240 435h59q32 0 52 16t20 45t-20 45t-52 16h-59v-122z
" />
    <glyph glyph-name="C" unicode="C" horiz-adv-x="729" 
d="M383 -12q-105 0 -185.5 46.5t-126.5 128t-46 187.5t46 187.5t126.5 128t185.5 46.5q81 0 146 -28t112 -78t72 -116l-176 -56q-14 33 -36 57.5t-51.5 37.5t-66.5 13q-49 0 -87 -24.5t-59.5 -67.5t-21.5 -100q0 -56 22 -99.5t60.5 -68t88.5 -24.5q39 0 67.5 13.5t49 38
t35.5 57.5l176 -56q-24 -66 -71 -116.5t-113 -78.5t-147 -28z" />
    <glyph glyph-name="Cacute" unicode="&#x106;" horiz-adv-x="729" 
d="M383 -12q-105 0 -185.5 46.5t-126.5 128t-46 187.5t46 187.5t126.5 128t185.5 46.5q81 0 146 -28t112 -78t72 -116l-176 -56q-14 33 -36 57.5t-51.5 37.5t-66.5 13q-49 0 -87 -24.5t-59.5 -67.5t-21.5 -100q0 -56 22 -99.5t60.5 -68t88.5 -24.5q39 0 67.5 13.5t49 38
t35.5 57.5l176 -56q-24 -66 -71 -116.5t-113 -78.5t-147 -28zM284 754l110 146h190l-130 -146h-170z" />
    <glyph glyph-name="Ccaron" unicode="&#x10c;" horiz-adv-x="729" 
d="M383 -12q-105 0 -185.5 46.5t-126.5 128t-46 187.5t46 187.5t126.5 128t185.5 46.5q81 0 146 -28t112 -78t72 -116l-176 -56q-14 33 -36 57.5t-51.5 37.5t-66.5 13q-49 0 -87 -24.5t-59.5 -67.5t-21.5 -100q0 -56 22 -99.5t60.5 -68t88.5 -24.5q39 0 67.5 13.5t49 38
t35.5 57.5l176 -56q-24 -66 -71 -116.5t-113 -78.5t-147 -28zM303 754v5l137 141h150l-127 -146h-160zM292 754l-127 146h150l137 -141v-5h-160z" />
    <glyph glyph-name="Ccedilla" unicode="&#xc7;" horiz-adv-x="729" 
d="M383 -12q-105 0 -185.5 46.5t-126.5 128t-46 187.5t46 187.5t126.5 128t185.5 46.5q81 0 146 -28t112 -78t72 -116l-176 -56q-14 33 -36 57.5t-51.5 37.5t-66.5 13q-49 0 -87 -24.5t-59.5 -67.5t-21.5 -100q0 -56 22 -99.5t60.5 -68t88.5 -24.5q39 0 67.5 13.5t49 38
t35.5 57.5l176 -56q-24 -66 -71 -116.5t-113 -78.5t-147 -28zM329 -210q-24 0 -49.5 8.5t-46.5 22.5l21 76q14 -7 26.5 -10.5t20.5 -3.5q17 0 27 5t10 14q0 14 -14.5 21.5t-40.5 7.5l30 75h97l-15 -32q34 -11 53 -33t19 -49q0 -48 -36.5 -75t-101.5 -27z" />
    <glyph glyph-name="Ccircumflex" unicode="&#x108;" horiz-adv-x="729" 
d="M383 -12q-105 0 -185.5 46.5t-126.5 128t-46 187.5t46 187.5t126.5 128t185.5 46.5q81 0 146 -28t112 -78t72 -116l-176 -56q-14 33 -36 57.5t-51.5 37.5t-66.5 13q-49 0 -87 -24.5t-59.5 -67.5t-21.5 -100q0 -56 22 -99.5t60.5 -68t88.5 -24.5q39 0 67.5 13.5t49 38
t35.5 57.5l176 -56q-24 -66 -71 -116.5t-113 -78.5t-147 -28zM440 765l-147 134v13h170l127 -147h-150zM165 765l127 147h170v-13l-147 -134h-150z" />
    <glyph glyph-name="Cdotaccent" unicode="&#x10a;" horiz-adv-x="729" 
d="M383 -12q-105 0 -185.5 46.5t-126.5 128t-46 187.5t46 187.5t126.5 128t185.5 46.5q81 0 146 -28t112 -78t72 -116l-176 -56q-14 33 -36 57.5t-51.5 37.5t-66.5 13q-49 0 -87 -24.5t-59.5 -67.5t-21.5 -100q0 -56 22 -99.5t60.5 -68t88.5 -24.5q39 0 67.5 13.5t49 38
t35.5 57.5l176 -56q-24 -66 -71 -116.5t-113 -78.5t-147 -28zM383 748q-40 0 -70 30t-30 70q0 41 30 70.5t70 29.5q41 0 70.5 -29.5t29.5 -70.5q0 -40 -29.5 -70t-70.5 -30z" />
    <glyph glyph-name="D" unicode="D" horiz-adv-x="711" 
d="M60 0v700h234q115 0 203.5 -45t138.5 -123.5t50 -181.5q0 -102 -50 -181t-138.5 -124t-203.5 -45h-234zM245 175h49q44 0 81 13t64 36t42 55t15 71t-15 71t-42 55t-64 36t-81 13h-49v-350z" />
    <glyph glyph-name="Dcaron" unicode="&#x10e;" horiz-adv-x="711" 
d="M60 0v700h234q115 0 203.5 -45t138.5 -123.5t50 -181.5q0 -102 -50 -181t-138.5 -124t-203.5 -45h-234zM245 175h49q44 0 81 13t64 36t42 55t15 71t-15 71t-42 55t-64 36t-81 13h-49v-350zM223 754v5l137 141h150l-127 -146h-160zM212 754l-127 146h150l137 -141v-5h-160
z" />
    <glyph glyph-name="Dcroat" unicode="&#x110;" horiz-adv-x="741" 
d="M40 287v127h338v-127h-338zM90 0v700h234q115 0 203.5 -45t138.5 -123.5t50 -181.5q0 -102 -50 -181t-138.5 -124t-203.5 -45h-234zM275 175h49q44 0 81 13t64 36t42 55t15 71t-15 71t-42 55t-64 36t-81 13h-49v-350z" />
    <glyph glyph-name="Eth" unicode="&#xd0;" horiz-adv-x="741" 
d="M40 287v127h338v-127h-338zM90 0v700h234q115 0 203.5 -45t138.5 -123.5t50 -181.5q0 -102 -50 -181t-138.5 -124t-203.5 -45h-234zM275 175h49q44 0 81 13t64 36t42 55t15 71t-15 71t-42 55t-64 36t-81 13h-49v-350z" />
    <glyph glyph-name="E" unicode="E" horiz-adv-x="586" 
d="M60 0v700h469v-170h-284v-97h230v-165h-230v-98h291v-170h-476z" />
    <glyph glyph-name="Eacute" unicode="&#xc9;" horiz-adv-x="586" 
d="M60 0v700h469v-170h-284v-97h230v-165h-230v-98h291v-170h-476zM189 751l110 139h190l-130 -139h-170z" />
    <glyph glyph-name="Ecaron" unicode="&#x11a;" horiz-adv-x="586" 
d="M60 0v700h469v-170h-284v-97h230v-165h-230v-98h291v-170h-476zM208 754v5l137 141h150l-127 -146h-160zM197 754l-127 146h150l137 -141v-5h-160z" />
    <glyph glyph-name="Ecircumflex" unicode="&#xca;" horiz-adv-x="586" 
d="M60 0v700h469v-170h-284v-97h230v-165h-230v-98h291v-170h-476zM345 765l-147 134v13h170l127 -147h-150zM70 765l127 147h170v-13l-147 -134h-150z" />
    <glyph glyph-name="Edieresis" unicode="&#xcb;" horiz-adv-x="586" 
d="M60 0v700h469v-170h-284v-97h230v-165h-230v-98h291v-170h-476zM423 769q-35 0 -61.5 26.5t-26.5 61.5t26.5 61.5t61.5 26.5t61.5 -26.5t26.5 -61.5t-26.5 -61.5t-61.5 -26.5zM153 769q-36 0 -62 26t-26 62t26 62t62 26t62 -26t26 -62t-26 -62t-62 -26z" />
    <glyph glyph-name="Edotaccent" unicode="&#x116;" horiz-adv-x="586" 
d="M60 0v700h469v-170h-284v-97h230v-165h-230v-98h291v-170h-476zM288 748q-40 0 -70 30t-30 70q0 41 30 70.5t70 29.5q41 0 70.5 -29.5t29.5 -70.5q0 -40 -29.5 -70t-70.5 -30z" />
    <glyph glyph-name="Egrave" unicode="&#xc8;" horiz-adv-x="586" 
d="M60 0v700h469v-170h-284v-97h230v-165h-230v-98h291v-170h-476zM230 754l-132 147h190l112 -147h-170z" />
    <glyph glyph-name="Emacron" unicode="&#x112;" horiz-adv-x="586" 
d="M60 0v700h469v-170h-284v-97h230v-165h-230v-98h291v-170h-476zM118 749v151h340v-151h-340z" />
    <glyph glyph-name="Eogonek" unicode="&#x118;" horiz-adv-x="586" 
d="M60 0v700h469v-170h-284v-97h230v-165h-230v-98h291v-170h-476zM497 -212q-42 0 -77.5 14t-57 41.5t-21.5 68.5q0 29 17 52.5t40 35.5h138q-27 -17 -41.5 -37.5t-14.5 -37.5q0 -8 5 -14t13 -6t14 2t11 5l52 -108q-15 -9 -34 -12.5t-44 -3.5z" />
    <glyph glyph-name="F" unicode="F" horiz-adv-x="564" 
d="M60 0v700h479v-170h-294v-102h230v-170h-230v-258h-185z" />
    <glyph glyph-name="G" unicode="G" horiz-adv-x="727" 
d="M393 -12q-108 0 -191 46.5t-130 128t-47 187.5t47 187.5t130 128t191 46.5q71 0 125.5 -20t94.5 -54.5t68 -79.5l-154 -91q-14 22 -35.5 39t-47 26.5t-51.5 9.5q-52 0 -92 -24.5t-63 -67.5t-23 -100q0 -56 22 -100t63.5 -69t97.5 -25q40 0 71 14.5t49 41t18 61.5l176 33
q0 -106 -41 -177t-112.5 -106t-165.5 -35zM380 252v140h332v-103l-105 -37h-227z" />
    <glyph glyph-name="Gbreve" unicode="&#x11e;" horiz-adv-x="727" 
d="M393 -12q-108 0 -191 46.5t-130 128t-47 187.5t47 187.5t130 128t191 46.5q71 0 125.5 -20t94.5 -54.5t68 -79.5l-154 -91q-14 22 -35.5 39t-47 26.5t-51.5 9.5q-52 0 -92 -24.5t-63 -67.5t-23 -100q0 -56 22 -100t63.5 -69t97.5 -25q40 0 71 14.5t49 41t18 61.5l176 33
q0 -106 -41 -177t-112.5 -106t-165.5 -35zM380 252v140h332v-103l-105 -37h-227zM394 742q-59 0 -105 20t-72 56t-26 82h164q0 -17 11 -28t28 -11t27.5 11t10.5 28h164q0 -46 -26 -82t-71.5 -56t-104.5 -20z" />
    <glyph glyph-name="Gcircumflex" unicode="&#x11c;" horiz-adv-x="727" 
d="M393 -12q-108 0 -191 46.5t-130 128t-47 187.5t47 187.5t130 128t191 46.5q71 0 125.5 -20t94.5 -54.5t68 -79.5l-154 -91q-14 22 -35.5 39t-47 26.5t-51.5 9.5q-52 0 -92 -24.5t-63 -67.5t-23 -100q0 -56 22 -100t63.5 -69t97.5 -25q40 0 71 14.5t49 41t18 61.5l176 33
q0 -106 -41 -177t-112.5 -106t-165.5 -35zM380 252v140h332v-103l-105 -37h-227zM450 765l-147 134v13h170l127 -147h-150zM175 765l127 147h170v-13l-147 -134h-150z" />
    <glyph glyph-name="uni0122" unicode="&#x122;" horiz-adv-x="727" 
d="M393 -12q-108 0 -191 46.5t-130 128t-47 187.5t47 187.5t130 128t191 46.5q71 0 125.5 -20t94.5 -54.5t68 -79.5l-154 -91q-14 22 -35.5 39t-47 26.5t-51.5 9.5q-52 0 -92 -24.5t-63 -67.5t-23 -100q0 -56 22 -100t63.5 -69t97.5 -25q40 0 71 14.5t49 41t18 61.5l176 33
q0 -106 -41 -177t-112.5 -106t-165.5 -35zM380 252v140h332v-103l-105 -37h-227zM274 -200l46 160h168l-84 -160h-130z" />
    <glyph glyph-name="Gdotaccent" unicode="&#x120;" horiz-adv-x="727" 
d="M393 -12q-108 0 -191 46.5t-130 128t-47 187.5t47 187.5t130 128t191 46.5q71 0 125.5 -20t94.5 -54.5t68 -79.5l-154 -91q-14 22 -35.5 39t-47 26.5t-51.5 9.5q-52 0 -92 -24.5t-63 -67.5t-23 -100q0 -56 22 -100t63.5 -69t97.5 -25q40 0 71 14.5t49 41t18 61.5l176 33
q0 -106 -41 -177t-112.5 -106t-165.5 -35zM380 252v140h332v-103l-105 -37h-227zM393 748q-40 0 -70 30t-30 70q0 41 30 70.5t70 29.5q41 0 70.5 -29.5t29.5 -70.5q0 -40 -29.5 -70t-70.5 -30z" />
    <glyph glyph-name="H" unicode="H" horiz-adv-x="748" 
d="M503 0v700h185v-700h-185zM60 0v701h185v-701h-185zM187 271v170h424v-170h-424z" />
    <glyph glyph-name="Hbar" unicode="&#x126;" horiz-adv-x="748" 
d="M5 504v127h738v-127h-738zM503 0v700h185v-700h-185zM60 0v701h185v-701h-185zM187 271v170h424v-170h-424z" />
    <glyph glyph-name="Hcircumflex" unicode="&#x124;" horiz-adv-x="748" 
d="M503 0v700h185v-700h-185zM60 0v701h185v-701h-185zM187 271v170h424v-170h-424zM437 766l-147 134v13h170l127 -147h-150zM162 766l127 147h170v-13l-147 -134h-150z" />
    <glyph glyph-name="I" unicode="I" horiz-adv-x="305" 
d="M60 0v700h185v-700h-185z" />
    <glyph glyph-name="IJ" unicode="&#x132;" horiz-adv-x="892" 
d="M60 0v700h185v-700h-185zM568 -16q-65 0 -113 22t-79 56.5t-46 71.5t-15 67l163 50q11 -49 34 -73t58 -24q26 0 45.5 11t30.5 33.5t11 56.5v445h185v-491q0 -49 -18.5 -90.5t-54 -71.5t-86.5 -46.5t-115 -16.5z" />
    <glyph glyph-name="Iacute" unicode="&#xcd;" horiz-adv-x="305" 
d="M60 0v700h185v-700h-185zM56 751l110 139h190l-130 -139h-170z" />
    <glyph glyph-name="Icircumflex" unicode="&#xce;" horiz-adv-x="305" 
d="M60 0v700h185v-700h-185zM212 765l-147 134v13h170l127 -147h-150zM-63 765l127 147h170v-13l-147 -134h-150z" />
    <glyph glyph-name="Idieresis" unicode="&#xcf;" horiz-adv-x="330" 
d="M265 769q-35 0 -61.5 26.5t-26.5 61.5t26.5 61.5t61.5 26.5t61.5 -26.5t26.5 -61.5t-26.5 -61.5t-61.5 -26.5zM65 769q-36 0 -62 26t-26 62t26 62t62 26t62 -26t26 -62t-26 -62t-62 -26zM60 0v700h185v-700h-185z" />
    <glyph glyph-name="Idotaccent" unicode="&#x130;" horiz-adv-x="305" 
d="M60 0v700h185v-700h-185zM155 748q-40 0 -70 30t-30 70q0 41 30 70.5t70 29.5q41 0 70.5 -29.5t29.5 -70.5q0 -40 -29.5 -70t-70.5 -30z" />
    <glyph glyph-name="Igrave" unicode="&#xcc;" horiz-adv-x="305" 
d="M60 0v700h185v-700h-185zM97 754l-132 147h190l112 -147h-170z" />
    <glyph glyph-name="Imacron" unicode="&#x12a;" horiz-adv-x="305" 
d="M60 0v700h185v-700h-185zM-15 749v151h340v-151h-340z" />
    <glyph glyph-name="Iogonek" unicode="&#x12e;" horiz-adv-x="305" 
d="M60 0v700h185v-700h-185zM206 -212q-42 0 -77.5 14t-57 41.5t-21.5 68.5q0 29 17 52.5t40 35.5h138q-27 -17 -41.5 -37.5t-14.5 -37.5q0 -8 5 -14t13 -6t14 2t11 5l52 -108q-15 -9 -34 -12.5t-44 -3.5z" />
    <glyph glyph-name="J" unicode="J" horiz-adv-x="587" 
d="M263 -16q-65 0 -113 22t-79 56.5t-46 71.5t-15 67l163 50q11 -49 34 -73t58 -24q26 0 45.5 11t30.5 33.5t11 56.5v445h185v-491q0 -49 -18.5 -90.5t-54 -71.5t-86.5 -46.5t-115 -16.5z" />
    <glyph glyph-name="uni004A0301" horiz-adv-x="587" 
d="M263 -16q-65 0 -113 22t-79 56.5t-46 71.5t-15 67l163 50q11 -49 34 -73t58 -24q26 0 45.5 11t30.5 33.5t11 56.5v445h185v-491q0 -49 -18.5 -90.5t-54 -71.5t-86.5 -46.5t-115 -16.5zM341 724l110 146h190l-130 -146h-170z" />
    <glyph glyph-name="Jcircumflex" unicode="&#x134;" horiz-adv-x="587" 
d="M263 -16q-65 0 -113 22t-79 56.5t-46 71.5t-15 67l163 50q11 -49 34 -73t58 -24q26 0 45.5 11t30.5 33.5t11 56.5v445h185v-491q0 -49 -18.5 -90.5t-54 -71.5t-86.5 -46.5t-115 -16.5zM487 768l-147 134v13h170l127 -147h-150zM212 768l127 147h170v-13l-147 -134h-150z
" />
    <glyph glyph-name="K" unicode="K" horiz-adv-x="718" 
d="M164 119v259l292 322h243zM60 0v700h185v-700h-185zM478 0l-271 356l139 108l362 -464h-230z" />
    <glyph glyph-name="uni0136" unicode="&#x136;" horiz-adv-x="718" 
d="M164 119v259l292 322h243zM60 0v700h185v-700h-185zM478 0l-271 356l139 108l362 -464h-230zM240 -200l46 160h168l-84 -160h-130z" />
    <glyph glyph-name="L" unicode="L" horiz-adv-x="553" 
d="M60 0v700h185v-530h288v-170h-473z" />
    <glyph glyph-name="Lacute" unicode="&#x139;" horiz-adv-x="553" 
d="M60 0v700h185v-530h288v-170h-473zM54 754l110 146h190l-130 -146h-170z" />
    <glyph glyph-name="Lcaron" unicode="&#x13d;" horiz-adv-x="553" 
d="M60 0v700h185v-530h288v-170h-473zM272 611l23 148h150l-43 -148h-130z" />
    <glyph glyph-name="uni013B" unicode="&#x13b;" horiz-adv-x="553" 
d="M60 0v700h185v-530h288v-170h-473zM168 -200l46 160h168l-84 -160h-130z" />
    <glyph glyph-name="Lslash" unicode="&#x141;" horiz-adv-x="553" 
d="M0 221v148l334 181v-148zM60 0v700h185v-530h288v-170h-473z" />
    <glyph glyph-name="M" unicode="M" horiz-adv-x="868" 
d="M60 0v700h205l169 -250l169 250h205v-700h-185v414l-188 -274l-190 274v-414h-185z" />
    <glyph glyph-name="N" unicode="N" horiz-adv-x="773" 
d="M60 0v700h195l273 -385v385h185v-700h-185l-283 399v-399h-185z" />
    <glyph glyph-name="Nacute" unicode="&#x143;" horiz-adv-x="773" 
d="M60 0v700h195l273 -385v385h185v-700h-185l-283 399v-399h-185zM288 734l110 146h190l-130 -146h-170z" />
    <glyph glyph-name="Ncaron" unicode="&#x147;" horiz-adv-x="773" 
d="M60 0v700h195l273 -385v385h185v-700h-185l-283 399v-399h-185zM307 734v5l137 141h150l-127 -146h-160zM296 734l-127 146h150l137 -141v-5h-160z" />
    <glyph glyph-name="uni0145" unicode="&#x145;" horiz-adv-x="773" 
d="M60 0v700h195l273 -385v385h185v-700h-185l-283 399v-399h-185zM270 -200l46 160h168l-84 -160h-130z" />
    <glyph glyph-name="Ntilde" unicode="&#xd1;" horiz-adv-x="773" 
d="M60 0v700h195l273 -385v385h185v-700h-185l-283 399v-399h-185zM468 714q-38 0 -58.5 11t-31.5 25t-21 25t-27 11q-7 0 -16 -6.5t-15 -32.5h-111q6 53 22.5 85t45 46t68.5 14q41 0 63.5 -11t34.5 -25t21 -25t24 -11q14 0 19 11.5t7 27.5h111q-9 -70 -40.5 -107.5
t-95.5 -37.5z" />
    <glyph glyph-name="Eng" unicode="&#x14a;" horiz-adv-x="773" 
d="M509 -215q-76 0 -124 35l74 149q9 -7 19.5 -11.5t20.5 -4.5q29 0 29 40v7h185v-21q0 -91 -54 -142.5t-150 -51.5zM60 0v700h195l273 -385v385h185v-700h-185l-283 399v-399h-185z" />
    <glyph glyph-name="O" unicode="O" horiz-adv-x="797" 
d="M400 -12q-110 0 -194.5 46.5t-132.5 128t-48 186.5q0 106 48 187.5t132 128t193 46.5q110 0 194 -46.5t132 -128t48 -187.5q0 -105 -47.5 -186.5t-131.5 -128t-193 -46.5zM400 158q54 0 95 24.5t64 67.5t23 99t-23.5 99.5t-65 68t-95.5 24.5q-53 0 -94.5 -24.5t-65 -68
t-23.5 -99.5t24 -99t65.5 -67.5t95.5 -24.5z" />
    <glyph glyph-name="Oacute" unicode="&#xd3;" horiz-adv-x="797" 
d="M400 -12q-110 0 -194.5 46.5t-132.5 128t-48 186.5q0 106 48 187.5t132 128t193 46.5q110 0 194 -46.5t132 -128t48 -187.5q0 -105 -47.5 -186.5t-131.5 -128t-193 -46.5zM400 158q54 0 95 24.5t64 67.5t23 99t-23.5 99.5t-65 68t-95.5 24.5q-53 0 -94.5 -24.5t-65 -68
t-23.5 -99.5t24 -99t65.5 -67.5t95.5 -24.5zM300 751l110 139h190l-130 -139h-170z" />
    <glyph glyph-name="Ocircumflex" unicode="&#xd4;" horiz-adv-x="797" 
d="M400 -12q-110 0 -194.5 46.5t-132.5 128t-48 186.5q0 106 48 187.5t132 128t193 46.5q110 0 194 -46.5t132 -128t48 -187.5q0 -105 -47.5 -186.5t-131.5 -128t-193 -46.5zM400 158q54 0 95 24.5t64 67.5t23 99t-23.5 99.5t-65 68t-95.5 24.5q-53 0 -94.5 -24.5t-65 -68
t-23.5 -99.5t24 -99t65.5 -67.5t95.5 -24.5zM456 765l-147 134v13h170l127 -147h-150zM181 765l127 147h170v-13l-147 -134h-150z" />
    <glyph glyph-name="Odieresis" unicode="&#xd6;" horiz-adv-x="797" 
d="M400 -12q-110 0 -194.5 46.5t-132.5 128t-48 186.5q0 106 48 187.5t132 128t193 46.5q110 0 194 -46.5t132 -128t48 -187.5q0 -105 -47.5 -186.5t-131.5 -128t-193 -46.5zM400 158q54 0 95 24.5t64 67.5t23 99t-23.5 99.5t-65 68t-95.5 24.5q-53 0 -94.5 -24.5t-65 -68
t-23.5 -99.5t24 -99t65.5 -67.5t95.5 -24.5zM534 769q-35 0 -61.5 26.5t-26.5 61.5t26.5 61.5t61.5 26.5t61.5 -26.5t26.5 -61.5t-26.5 -61.5t-61.5 -26.5zM264 769q-36 0 -62 26t-26 62t26 62t62 26t62 -26t26 -62t-26 -62t-62 -26z" />
    <glyph glyph-name="Ograve" unicode="&#xd2;" horiz-adv-x="797" 
d="M400 -12q-110 0 -194.5 46.5t-132.5 128t-48 186.5q0 106 48 187.5t132 128t193 46.5q110 0 194 -46.5t132 -128t48 -187.5q0 -105 -47.5 -186.5t-131.5 -128t-193 -46.5zM400 158q54 0 95 24.5t64 67.5t23 99t-23.5 99.5t-65 68t-95.5 24.5q-53 0 -94.5 -24.5t-65 -68
t-23.5 -99.5t24 -99t65.5 -67.5t95.5 -24.5zM341 754l-132 147h190l112 -147h-170z" />
    <glyph glyph-name="Ohungarumlaut" unicode="&#x150;" horiz-adv-x="797" 
d="M400 -12q-110 0 -194.5 46.5t-132.5 128t-48 186.5q0 106 48 187.5t132 128t193 46.5q110 0 194 -46.5t132 -128t48 -187.5q0 -105 -47.5 -186.5t-131.5 -128t-193 -46.5zM400 158q54 0 95 24.5t64 67.5t23 99t-23.5 99.5t-65 68t-95.5 24.5q-53 0 -94.5 -24.5t-65 -68
t-23.5 -99.5t24 -99t65.5 -67.5t95.5 -24.5zM443 754l100 146h170l-122 -146h-148zM213 754l96 146h170l-120 -146h-146z" />
    <glyph glyph-name="Omacron" unicode="&#x14c;" horiz-adv-x="797" 
d="M400 -12q-110 0 -194.5 46.5t-132.5 128t-48 186.5q0 106 48 187.5t132 128t193 46.5q110 0 194 -46.5t132 -128t48 -187.5q0 -105 -47.5 -186.5t-131.5 -128t-193 -46.5zM400 158q54 0 95 24.5t64 67.5t23 99t-23.5 99.5t-65 68t-95.5 24.5q-53 0 -94.5 -24.5t-65 -68
t-23.5 -99.5t24 -99t65.5 -67.5t95.5 -24.5zM198 749v151h401v-151h-401z" />
    <glyph glyph-name="Oslash" unicode="&#xd8;" horiz-adv-x="796" 
d="M22 0l602 700h152l-603 -700h-151zM395 -12q-110 0 -194.5 46.5t-132.5 128t-48 186.5q0 106 48 187.5t132 128t193 46.5q110 0 194 -46.5t132 -128t48 -187.5q0 -105 -47.5 -186.5t-131.5 -128t-193 -46.5zM395 158q54 0 95 24.5t64 67.5t23 99t-23.5 99.5t-65 68
t-95.5 24.5q-53 0 -94.5 -24.5t-65 -68t-23.5 -99.5t24 -99t65.5 -67.5t95.5 -24.5z" />
    <glyph glyph-name="Otilde" unicode="&#xd5;" horiz-adv-x="797" 
d="M400 -12q-110 0 -194.5 46.5t-132.5 128t-48 186.5q0 106 48 187.5t132 128t193 46.5q110 0 194 -46.5t132 -128t48 -187.5q0 -105 -47.5 -186.5t-131.5 -128t-193 -46.5zM400 158q54 0 95 24.5t64 67.5t23 99t-23.5 99.5t-65 68t-95.5 24.5q-53 0 -94.5 -24.5t-65 -68
t-23.5 -99.5t24 -99t65.5 -67.5t95.5 -24.5zM480 734q-38 0 -58.5 11t-31.5 25t-21 25t-27 11q-7 0 -16 -6.5t-15 -32.5h-111q6 53 22.5 85t45 46t68.5 14q41 0 63.5 -11t34.5 -25t21 -25t24 -11q14 0 19 11.5t7 27.5h111q-9 -70 -40.5 -107.5t-95.5 -37.5z" />
    <glyph glyph-name="OE" unicode="&#x152;" horiz-adv-x="1096" 
d="M400 -12q-110 0 -194.5 46.5t-132.5 128t-48 187.5q0 105 48 186.5t132 128t193 46.5q96 0 169.5 -45.5t115 -126t41.5 -185.5q0 -107 -41.5 -189.5t-114.5 -129.5t-168 -47zM400 163q51 0 89.5 24t60 66t21.5 97q0 54 -22 96t-61 66t-90 24q-52 0 -92 -24t-63 -66
t-23 -97q0 -54 23 -96t64 -66t93 -24zM570 0v700h469v-170h-284v-97h230v-165h-230v-98h291v-170h-476z" />
    <glyph glyph-name="P" unicode="P" horiz-adv-x="625" 
d="M60 0v700h290q79 0 140 -31t95.5 -86t34.5 -127t-34.5 -127.5t-95.5 -87t-140 -31.5h-105v-210h-185zM245 380h100q38 0 61.5 21t23.5 55q0 33 -23.5 54t-61.5 21h-100v-151z" />
    <glyph glyph-name="Thorn" unicode="&#xde;" horiz-adv-x="645" 
d="M234 111v170h121q38 0 61.5 21t23.5 55q0 33 -23.5 54t-61.5 21h-121v169h131q79 0 140 -31t95.5 -86t34.5 -127t-34.5 -127.5t-95.5 -87t-140 -31.5h-131zM70 1v700h190v-700h-190z" />
    <glyph glyph-name="Q" unicode="Q" horiz-adv-x="797" 
d="M400 -12q-110 0 -194.5 46.5t-132.5 128t-48 186.5q0 80 27.5 146t77.5 115t118 75.5t150 26.5q110 0 194 -46.5t132 -128.5t48 -188q0 -105 -47.5 -186.5t-131.5 -128t-193 -46.5zM641 -44l-265 270l117 111l263 -269zM400 158q54 0 95 24.5t64 67.5t23 99
q0 57 -23.5 100.5t-65 68t-95.5 24.5q-53 0 -94.5 -24.5t-65 -68t-23.5 -100.5q0 -56 24 -99t65.5 -67.5t95.5 -24.5z" />
    <glyph glyph-name="R" unicode="R" horiz-adv-x="663" 
d="M60 0v700h290q79 0 140 -30.5t95.5 -84t34.5 -123.5t-34.5 -124.5t-95.5 -85t-140 -30.5h-105v-222h-185zM436 0l-156 275l139 104l229 -379h-212zM245 392h95q25 0 44 9t30 25t11 36q0 30 -23.5 49.5t-61.5 19.5h-95v-139z" />
    <glyph glyph-name="Racute" unicode="&#x154;" horiz-adv-x="663" 
d="M60 0v700h290q79 0 140 -30.5t95.5 -84t34.5 -123.5t-34.5 -124.5t-95.5 -85t-140 -30.5h-105v-222h-185zM436 0l-156 275l139 104l229 -379h-212zM245 392h95q25 0 44 9t30 25t11 36q0 30 -23.5 49.5t-61.5 19.5h-95v-139zM202 754l110 146h190l-130 -146h-170z" />
    <glyph glyph-name="Rcaron" unicode="&#x158;" horiz-adv-x="663" 
d="M60 0v700h290q79 0 140 -30.5t95.5 -84t34.5 -123.5t-34.5 -124.5t-95.5 -85t-140 -30.5h-105v-222h-185zM436 0l-156 275l139 104l229 -379h-212zM245 392h95q25 0 44 9t30 25t11 36q0 30 -23.5 49.5t-61.5 19.5h-95v-139zM221 754v5l137 141h150l-127 -146h-160z
M210 754l-127 146h150l137 -141v-5h-160z" />
    <glyph glyph-name="uni0156" unicode="&#x156;" horiz-adv-x="663" 
d="M60 0v700h290q79 0 140 -30.5t95.5 -84t34.5 -123.5t-34.5 -124.5t-95.5 -85t-140 -30.5h-105v-222h-185zM436 0l-156 275l139 104l229 -379h-212zM245 392h95q25 0 44 9t30 25t11 36q0 30 -23.5 49.5t-61.5 19.5h-95v-139zM213 -200l46 160h168l-84 -160h-130z" />
    <glyph glyph-name="S" unicode="S" horiz-adv-x="600" 
d="M305 -12q-49 0 -96 13.5t-85.5 37.5t-63.5 54.5t-30 64.5l184 51q9 -25 31 -42.5t57 -19.5q28 -1 49.5 15t21.5 42q0 17 -12.5 32.5t-39.5 22.5l-105 27q-54 14 -92.5 43t-59 71t-20.5 94q0 103 68.5 160.5t192.5 57.5q66 0 116.5 -17t87 -53.5t60.5 -95.5l-183 -53
q-5 20 -25.5 40t-55.5 20q-34 0 -52.5 -15t-18.5 -44q0 -18 15 -31.5t43 -20.5l106 -27q80 -20 125 -78.5t45 -133.5q0 -69 -31.5 -117t-90.5 -73t-141 -25z" />
    <glyph glyph-name="Sacute" unicode="&#x15a;" horiz-adv-x="600" 
d="M305 -12q-49 0 -96 13.5t-85.5 37.5t-63.5 54.5t-30 64.5l184 51q9 -25 31 -42.5t57 -19.5q28 -1 49.5 15t21.5 42q0 17 -12.5 32.5t-39.5 22.5l-105 27q-54 14 -92.5 43t-59 71t-20.5 94q0 103 68.5 160.5t192.5 57.5q66 0 116.5 -17t87 -53.5t60.5 -95.5l-183 -53
q-5 20 -25.5 40t-55.5 20q-34 0 -52.5 -15t-18.5 -44q0 -18 15 -31.5t43 -20.5l106 -27q80 -20 125 -78.5t45 -133.5q0 -69 -31.5 -117t-90.5 -73t-141 -25zM206 754l110 146h190l-130 -146h-170z" />
    <glyph glyph-name="Scaron" unicode="&#x160;" horiz-adv-x="600" 
d="M305 -12q-49 0 -96 13.5t-85.5 37.5t-63.5 54.5t-30 64.5l184 51q9 -25 31 -42.5t57 -19.5q28 -1 49.5 15t21.5 42q0 17 -12.5 32.5t-39.5 22.5l-105 27q-54 14 -92.5 43t-59 71t-20.5 94q0 103 68.5 160.5t192.5 57.5q66 0 116.5 -17t87 -53.5t60.5 -95.5l-183 -53
q-5 20 -25.5 40t-55.5 20q-34 0 -52.5 -15t-18.5 -44q0 -18 15 -31.5t43 -20.5l106 -27q80 -20 125 -78.5t45 -133.5q0 -69 -31.5 -117t-90.5 -73t-141 -25zM225 754v5l137 141h150l-127 -146h-160zM214 754l-127 146h150l137 -141v-5h-160z" />
    <glyph glyph-name="Scedilla" unicode="&#x15e;" horiz-adv-x="600" 
d="M305 -12q-49 0 -96 13.5t-85.5 37.5t-63.5 54.5t-30 64.5l184 51q9 -25 31 -42.5t57 -19.5q28 -1 49.5 15t21.5 42q0 17 -12.5 32.5t-39.5 22.5l-105 27q-54 14 -92.5 43t-59 71t-20.5 94q0 103 68.5 160.5t192.5 57.5q66 0 116.5 -17t87 -53.5t60.5 -95.5l-183 -53
q-5 20 -25.5 40t-55.5 20q-34 0 -52.5 -15t-18.5 -44q0 -18 15 -31.5t43 -20.5l106 -27q80 -20 125 -78.5t45 -133.5q0 -69 -31.5 -117t-90.5 -73t-141 -25zM251 -210q-24 0 -49.5 8.5t-46.5 22.5l21 76q14 -7 26.5 -10.5t20.5 -3.5q17 0 27 5t10 14q0 14 -14.5 21.5
t-40.5 7.5l30 75h97l-15 -32q34 -11 53 -33t19 -49q0 -48 -36.5 -75t-101.5 -27z" />
    <glyph glyph-name="Scircumflex" unicode="&#x15c;" horiz-adv-x="600" 
d="M305 -12q-49 0 -96 13.5t-85.5 37.5t-63.5 54.5t-30 64.5l184 51q9 -25 31 -42.5t57 -19.5q28 -1 49.5 15t21.5 42q0 17 -12.5 32.5t-39.5 22.5l-105 27q-54 14 -92.5 43t-59 71t-20.5 94q0 103 68.5 160.5t192.5 57.5q66 0 116.5 -17t87 -53.5t60.5 -95.5l-183 -53
q-5 20 -25.5 40t-55.5 20q-34 0 -52.5 -15t-18.5 -44q0 -18 15 -31.5t43 -20.5l106 -27q80 -20 125 -78.5t45 -133.5q0 -69 -31.5 -117t-90.5 -73t-141 -25zM362 765l-147 134v13h170l127 -147h-150zM87 765l127 147h170v-13l-147 -134h-150z" />
    <glyph glyph-name="uni0218" unicode="&#x218;" horiz-adv-x="600" 
d="M305 -12q-49 0 -96 13.5t-85.5 37.5t-63.5 54.5t-30 64.5l184 51q9 -25 31 -42.5t57 -19.5q28 -1 49.5 15t21.5 42q0 17 -12.5 32.5t-39.5 22.5l-105 27q-54 14 -92.5 43t-59 71t-20.5 94q0 103 68.5 160.5t192.5 57.5q66 0 116.5 -17t87 -53.5t60.5 -95.5l-183 -53
q-5 20 -25.5 40t-55.5 20q-34 0 -52.5 -15t-18.5 -44q0 -18 15 -31.5t43 -20.5l106 -27q80 -20 125 -78.5t45 -133.5q0 -69 -31.5 -117t-90.5 -73t-141 -25zM186 -200l46 160h168l-84 -160h-130z" />
    <glyph glyph-name="uni1E9E" unicode="&#x1e9e;" horiz-adv-x="684" 
d="M416 -12q-19 0 -51 4t-60 14l31 170q11 -5 27 -8.5t37 -3.5q30 0 54 18.5t24 51.5q0 28 -18 40t-70 12h-61v123l90 119q-23 8 -48.5 13t-54.5 5q-31 0 -48.5 -16t-17.5 -45v-485h-190v543q0 80 71 124.5t198 44.5q67 0 128.5 -20t112.5 -51t86 -63l-129 -188
q68 -22 100 -70.5t32 -117.5q0 -101 -62 -157.5t-181 -56.5z" />
    <glyph glyph-name="T" unicode="T" horiz-adv-x="614" 
d="M215 0v530h-198v170h580v-170h-197v-530h-185z" />
    <glyph glyph-name="Tcaron" unicode="&#x164;" horiz-adv-x="614" 
d="M215 0v530h-198v170h580v-170h-197v-530h-185zM226 754v5l137 141h150l-127 -146h-160zM215 754l-127 146h150l137 -141v-5h-160z" />
    <glyph glyph-name="uni021A" unicode="&#x21a;" horiz-adv-x="614" 
d="M215 0v530h-198v170h580v-170h-197v-530h-185zM188 -200l46 160h168l-84 -160h-130z" />
    <glyph glyph-name="U" unicode="U" horiz-adv-x="700" 
d="M348 -12q-93 0 -160 34t-102.5 97.5t-35.5 151.5v429h185v-429q0 -35 14 -60t39.5 -38t61.5 -13t62 13t39.5 38t13.5 60v429h185v-429q0 -88 -36 -151.5t-103.5 -97.5t-162.5 -34z" />
    <glyph glyph-name="Uacute" unicode="&#xda;" horiz-adv-x="709" 
d="M348 -12q-93 0 -160 34t-102.5 97.5t-35.5 151.5v429h185v-429q0 -35 14 -60t39.5 -38t61.5 -13t62 13t39.5 38t13.5 60v429h185v-429q0 -88 -36 -151.5t-103.5 -97.5t-162.5 -34zM315 724l110 146h190l-130 -146h-170z" />
    <glyph glyph-name="Ubreve" unicode="&#x16c;" horiz-adv-x="700" 
d="M348 -12q-93 0 -160 34t-102.5 97.5t-35.5 151.5v429h185v-429q0 -35 14 -60t39.5 -38t61.5 -13t62 13t39.5 38t13.5 60v429h185v-429q0 -88 -36 -151.5t-103.5 -97.5t-162.5 -34zM351 742q-59 0 -105 20t-72 56t-26 82h164q0 -17 11 -28t28 -11t27.5 11t10.5 28h164
q0 -46 -26 -82t-71.5 -56t-104.5 -20z" />
    <glyph glyph-name="Ucircumflex" unicode="&#xdb;" horiz-adv-x="700" 
d="M348 -12q-93 0 -160 34t-102.5 97.5t-35.5 151.5v429h185v-429q0 -35 14 -60t39.5 -38t61.5 -13t62 13t39.5 38t13.5 60v429h185v-429q0 -88 -36 -151.5t-103.5 -97.5t-162.5 -34zM407 765l-147 134v13h170l127 -147h-150zM132 765l127 147h170v-13l-147 -134h-150z" />
    <glyph glyph-name="Udieresis" unicode="&#xdc;" horiz-adv-x="700" 
d="M348 -12q-93 0 -160 34t-102.5 97.5t-35.5 151.5v429h185v-429q0 -35 14 -60t39.5 -38t61.5 -13t62 13t39.5 38t13.5 60v429h185v-429q0 -88 -36 -151.5t-103.5 -97.5t-162.5 -34zM485 769q-35 0 -61.5 26.5t-26.5 61.5t26.5 61.5t61.5 26.5t61.5 -26.5t26.5 -61.5
t-26.5 -61.5t-61.5 -26.5zM215 769q-36 0 -62 26t-26 62t26 62t62 26t62 -26t26 -62t-26 -62t-62 -26z" />
    <glyph glyph-name="Ugrave" unicode="&#xd9;" horiz-adv-x="700" 
d="M348 -12q-93 0 -160 34t-102.5 97.5t-35.5 151.5v429h185v-429q0 -35 14 -60t39.5 -38t61.5 -13t62 13t39.5 38t13.5 60v429h185v-429q0 -88 -36 -151.5t-103.5 -97.5t-162.5 -34zM292 754l-132 147h190l112 -147h-170z" />
    <glyph glyph-name="Uhungarumlaut" unicode="&#x170;" horiz-adv-x="700" 
d="M348 -12q-93 0 -160 34t-102.5 97.5t-35.5 151.5v429h185v-429q0 -35 14 -60t39.5 -38t61.5 -13t62 13t39.5 38t13.5 60v429h185v-429q0 -88 -36 -151.5t-103.5 -97.5t-162.5 -34zM394 754l100 146h170l-122 -146h-148zM164 754l96 146h170l-120 -146h-146z" />
    <glyph glyph-name="Umacron" unicode="&#x16a;" horiz-adv-x="700" 
d="M348 -12q-93 0 -160 34t-102.5 97.5t-35.5 151.5v429h185v-429q0 -35 14 -60t39.5 -38t61.5 -13t62 13t39.5 38t13.5 60v429h185v-429q0 -88 -36 -151.5t-103.5 -97.5t-162.5 -34zM180 749v151h340v-151h-340z" />
    <glyph glyph-name="Uogonek" unicode="&#x172;" horiz-adv-x="700" 
d="M348 -12q-93 0 -160 34t-102.5 97.5t-35.5 151.5v429h185v-429q0 -35 14 -60t39.5 -38t61.5 -13t62 13t39.5 38t13.5 60v429h185v-429q0 -88 -36 -151.5t-103.5 -97.5t-162.5 -34zM546 -212q-47 0 -87.5 12t-64.5 36t-24 60t22.5 63t60.5 50.5t83 50.5h30
q-31 -31 -45 -52.5t-17.5 -38t-3.5 -32.5q0 -15 9 -24t25 -9q13 0 21.5 2t16.5 5l52 -107q-15 -9 -34 -12.5t-44 -3.5z" />
    <glyph glyph-name="Uring" unicode="&#x16e;" horiz-adv-x="700" 
d="M348 -12q-93 0 -160 34t-102.5 97.5t-35.5 151.5v429h185v-429q0 -35 14 -60t39.5 -38t61.5 -13t62 13t39.5 38t13.5 60v429h185v-429q0 -88 -36 -151.5t-103.5 -97.5t-162.5 -34zM350 720q-37 0 -68.5 17.5t-50.5 46.5t-19 65q0 37 19 66t50.5 46.5t68.5 17.5t68 -17.5
t50 -46.5t19 -66q0 -36 -19 -65t-50 -46.5t-68 -17.5zM350 816q32 0 32 33q0 34 -32 34q-33 0 -33 -34q0 -33 33 -33z" />
    <glyph glyph-name="V" unicode="V" horiz-adv-x="750" 
d="M297 0l246 700h200l-267 -700h-179zM276 0l-269 700h200l248 -700h-179z" />
    <glyph glyph-name="W" unicode="W" horiz-adv-x="1008" 
d="M625 0l187 700h189l-201 -700h-175zM208 0l-201 700h189l187 -700h-175zM235 0l177 700h164l-176 -700h-165zM608 0l-176 700h164l187 -700h-175z" />
    <glyph glyph-name="Wacute" unicode="&#x1e82;" horiz-adv-x="1008" 
d="M625 0l187 700h189l-201 -700h-175zM208 0l-201 700h189l187 -700h-175zM235 0l177 700h164l-176 -700h-165zM608 0l-176 700h164l187 -700h-175zM404 724l110 146h190l-130 -146h-170z" />
    <glyph glyph-name="Wcircumflex" unicode="&#x174;" horiz-adv-x="1008" 
d="M625 0l187 700h189l-201 -700h-175zM208 0l-201 700h189l187 -700h-175zM235 0l177 700h164l-176 -700h-165zM608 0l-176 700h164l187 -700h-175zM560 735l-147 134v13h170l127 -147h-150zM285 735l127 147h170v-13l-147 -134h-150z" />
    <glyph glyph-name="Wdieresis" unicode="&#x1e84;" horiz-adv-x="1008" 
d="M625 0l187 700h189l-201 -700h-175zM208 0l-201 700h189l187 -700h-175zM235 0l177 700h164l-176 -700h-165zM608 0l-176 700h164l187 -700h-175zM638 739q-35 0 -61.5 26.5t-26.5 61.5t26.5 61.5t61.5 26.5t61.5 -26.5t26.5 -61.5t-26.5 -61.5t-61.5 -26.5zM368 739
q-36 0 -62 26t-26 62t26 62t62 26t62 -26t26 -62t-26 -62t-62 -26z" />
    <glyph glyph-name="Wgrave" unicode="&#x1e80;" horiz-adv-x="1008" 
d="M625 0l187 700h189l-201 -700h-175zM208 0l-201 700h189l187 -700h-175zM235 0l177 700h164l-176 -700h-165zM608 0l-176 700h164l187 -700h-175zM445 724l-132 147h190l112 -147h-170z" />
    <glyph glyph-name="X" unicode="X" horiz-adv-x="739" 
d="M10 0l272 382l218 318h221l-264 -360l-224 -340h-223zM506 0l-223 340l-265 360h221l219 -317l271 -383h-223z" />
    <glyph glyph-name="Y" unicode="Y" horiz-adv-x="686" 
d="M429 287l-181 31l223 382h210zM251 0v336h185v-336h-185zM257 287l-252 413h210l223 -382z" />
    <glyph glyph-name="Yacute" unicode="&#xdd;" horiz-adv-x="686" 
d="M429 287l-181 31l223 382h210zM251 0v336h185v-336h-185zM257 287l-252 413h210l223 -382zM244 724l110 146h190l-130 -146h-170z" />
    <glyph glyph-name="Ycircumflex" unicode="&#x176;" horiz-adv-x="686" 
d="M429 287l-181 31l223 382h210zM251 0v336h185v-336h-185zM257 287l-252 413h210l223 -382zM400 735l-147 134v13h170l127 -147h-150zM125 735l127 147h170v-13l-147 -134h-150z" />
    <glyph glyph-name="Ydieresis" unicode="&#x178;" horiz-adv-x="686" 
d="M429 287l-181 31l223 382h210zM251 0v336h185v-336h-185zM257 287l-252 413h210l223 -382zM478 739q-35 0 -61.5 26.5t-26.5 61.5t26.5 61.5t61.5 26.5t61.5 -26.5t26.5 -61.5t-26.5 -61.5t-61.5 -26.5zM208 739q-36 0 -62 26t-26 62t26 62t62 26t62 -26t26 -62t-26 -62
t-62 -26z" />
    <glyph glyph-name="Ygrave" unicode="&#x1ef2;" horiz-adv-x="686" 
d="M429 287l-181 31l223 382h210zM251 0v336h185v-336h-185zM257 287l-252 413h210l223 -382zM285 724l-132 147h190l112 -147h-170z" />
    <glyph glyph-name="Z" unicode="Z" horiz-adv-x="624" 
d="M30 0v175l322 350h-319v175h561v-175l-322 -350h319v-175h-561z" />
    <glyph glyph-name="Zacute" unicode="&#x179;" horiz-adv-x="624" 
d="M30 0v175l322 350h-319v175h561v-175l-322 -350h319v-175h-561zM214 754l110 146h190l-130 -146h-170z" />
    <glyph glyph-name="Zcaron" unicode="&#x17d;" horiz-adv-x="624" 
d="M30 0v175l322 350h-319v175h561v-175l-322 -350h319v-175h-561zM233 754v5l137 141h150l-127 -146h-160zM222 754l-127 146h150l137 -141v-5h-160z" />
    <glyph glyph-name="Zdotaccent" unicode="&#x17b;" horiz-adv-x="624" 
d="M30 0v175l322 350h-319v175h561v-175l-322 -350h319v-175h-561zM313 748q-40 0 -70 30t-30 70q0 41 30 70.5t70 29.5q41 0 70.5 -29.5t29.5 -70.5q0 -40 -29.5 -70t-70.5 -30z" />
    <glyph glyph-name="I.ss02" horiz-adv-x="465" 
d="M30 0v170h110v360h-110v170h405v-170h-110v-360h110v-170h-405z" />
    <glyph glyph-name="IJ.ss02" horiz-adv-x="1052" 
d="M30 0v170h110v360h-110v170h405v-170h-110v-360h110v-170h-405zM728 -16q-65 0 -113 22t-79 56.5t-46 71.5t-15 67l163 50q11 -49 34 -73t58 -24q26 0 45.5 11t30.5 33.5t11 56.5v445h185v-491q0 -49 -18.5 -90.5t-54 -71.5t-86.5 -46.5t-115 -16.5z" />
    <glyph glyph-name="Iacute.ss02" horiz-adv-x="465" 
d="M30 0v170h110v360h-110v170h405v-170h-110v-360h110v-170h-405zM136 751l110 139h190l-130 -139h-170z" />
    <glyph glyph-name="Icircumflex.ss02" horiz-adv-x="465" 
d="M30 0v170h110v360h-110v170h405v-170h-110v-360h110v-170h-405zM292 765l-147 134v13h170l127 -147h-150zM17 765l127 147h170v-13l-147 -134h-150z" />
    <glyph glyph-name="Idieresis.ss02" horiz-adv-x="465" 
d="M345 769q-35 0 -61.5 26.5t-26.5 61.5t26.5 61.5t61.5 26.5t61.5 -26.5t26.5 -61.5t-26.5 -61.5t-61.5 -26.5zM145 769q-36 0 -62 26t-26 62t26 62t62 26t62 -26t26 -62t-26 -62t-62 -26zM30 0v170h110v360h-110v170h405v-170h-110v-360h110v-170h-405z" />
    <glyph glyph-name="Idotaccent.ss02" horiz-adv-x="465" 
d="M30 0v170h110v360h-110v170h405v-170h-110v-360h110v-170h-405zM235 748q-40 0 -70 30t-30 70q0 41 30 70.5t70 29.5q41 0 70.5 -29.5t29.5 -70.5q0 -40 -29.5 -70t-70.5 -30z" />
    <glyph glyph-name="Igrave.ss02" horiz-adv-x="465" 
d="M30 0v170h110v360h-110v170h405v-170h-110v-360h110v-170h-405zM177 754l-132 147h190l112 -147h-170z" />
    <glyph glyph-name="Imacron.ss02" horiz-adv-x="465" 
d="M30 0v170h110v360h-110v170h405v-170h-110v-360h110v-170h-405zM65 749v151h340v-151h-340z" />
    <glyph glyph-name="Iogonek.ss02" horiz-adv-x="465" 
d="M30 0v170h110v360h-110v170h405v-170h-110v-360h110v-170h-405zM286 -212q-42 0 -77.5 14t-57 41.5t-21.5 68.5q0 29 17 52.5t40 35.5h138q-27 -17 -41.5 -37.5t-14.5 -37.5q0 -8 5 -14t13 -6t14 2t11 5l52 -108q-15 -9 -34 -12.5t-44 -3.5z" />
    <glyph glyph-name="a" unicode="a" horiz-adv-x="546" 
d="M337 0l-5 115v130q0 35 -4 63t-20 44t-52 16q-25 0 -41 -12t-27 -28l-157 50q21 41 52.5 71t74 46.5t94.5 16.5q80 0 137 -29t87 -81t30 -121v-281h-169zM204 -12q-87 0 -135.5 39.5t-48.5 113.5q0 78 48.5 115.5t135.5 37.5h147v-103h-76q-35 0 -54 -12t-19 -34
q0 -15 13 -23t36 -8q25 0 43 9.5t28 27t10 40.5h47q0 -97 -46 -150t-129 -53z" />
    <glyph glyph-name="aacute" unicode="&#xe1;" horiz-adv-x="546" 
d="M337 0l-5 115v130q0 35 -4 63t-20 44t-52 16q-25 0 -41 -12t-27 -28l-157 50q21 41 52.5 71t74 46.5t94.5 16.5q80 0 137 -29t87 -81t30 -121v-281h-169zM204 -12q-87 0 -135.5 39.5t-48.5 113.5q0 78 48.5 115.5t135.5 37.5h147v-103h-76q-35 0 -54 -12t-19 -34
q0 -15 13 -23t36 -8q25 0 43 9.5t28 27t10 40.5h47q0 -97 -46 -150t-129 -53zM153 554l110 146h190l-130 -146h-170z" />
    <glyph glyph-name="abreve" unicode="&#x103;" horiz-adv-x="546" 
d="M337 0l-5 115v130q0 35 -4 63t-20 44t-52 16q-25 0 -41 -12t-27 -28l-157 50q21 41 52.5 71t74 46.5t94.5 16.5q80 0 137 -29t87 -81t30 -121v-281h-169zM204 -12q-87 0 -135.5 39.5t-48.5 113.5q0 78 48.5 115.5t135.5 37.5h147v-103h-76q-35 0 -54 -12t-19 -34
q0 -15 13 -23t36 -8q25 0 43 9.5t28 27t10 40.5h47q0 -97 -46 -150t-129 -53zM253 542q-59 0 -105 20t-72 56t-26 82h164q0 -17 11 -28t28 -11t27.5 11t10.5 28h164q0 -46 -26 -82t-71.5 -56t-104.5 -20z" />
    <glyph glyph-name="uni01CE" unicode="&#x1ce;" horiz-adv-x="546" 
d="M337 0l-5 115v130q0 35 -4 63t-20 44t-52 16q-25 0 -41 -12t-27 -28l-157 50q21 41 52.5 71t74 46.5t94.5 16.5q80 0 137 -29t87 -81t30 -121v-281h-169zM204 -12q-87 0 -135.5 39.5t-48.5 113.5q0 78 48.5 115.5t135.5 37.5h147v-103h-76q-35 0 -54 -12t-19 -34
q0 -15 13 -23t36 -8q25 0 43 9.5t28 27t10 40.5h47q0 -97 -46 -150t-129 -53zM172 554v5l137 141h150l-127 -146h-160zM161 554l-127 146h150l137 -141v-5h-160z" />
    <glyph glyph-name="acircumflex" unicode="&#xe2;" horiz-adv-x="546" 
d="M337 0l-5 115v130q0 35 -4 63t-20 44t-52 16q-25 0 -41 -12t-27 -28l-157 50q21 41 52.5 71t74 46.5t94.5 16.5q80 0 137 -29t87 -81t30 -121v-281h-169zM204 -12q-87 0 -135.5 39.5t-48.5 113.5q0 78 48.5 115.5t135.5 37.5h147v-103h-76q-35 0 -54 -12t-19 -34
q0 -15 13 -23t36 -8q25 0 43 9.5t28 27t10 40.5h47q0 -97 -46 -150t-129 -53zM309 565l-147 134v13h170l127 -147h-150zM34 565l127 147h170v-13l-147 -134h-150z" />
    <glyph glyph-name="adieresis" unicode="&#xe4;" horiz-adv-x="546" 
d="M337 0l-5 115v130q0 35 -4 63t-20 44t-52 16q-25 0 -41 -12t-27 -28l-157 50q21 41 52.5 71t74 46.5t94.5 16.5q80 0 137 -29t87 -81t30 -121v-281h-169zM204 -12q-87 0 -135.5 39.5t-48.5 113.5q0 78 48.5 115.5t135.5 37.5h147v-103h-76q-35 0 -54 -12t-19 -34
q0 -15 13 -23t36 -8q25 0 43 9.5t28 27t10 40.5h47q0 -97 -46 -150t-129 -53zM387 569q-35 0 -61.5 26.5t-26.5 61.5t26.5 61.5t61.5 26.5t61.5 -26.5t26.5 -61.5t-26.5 -61.5t-61.5 -26.5zM117 569q-36 0 -62 26t-26 62t26 62t62 26t62 -26t26 -62t-26 -62t-62 -26z" />
    <glyph glyph-name="agrave" unicode="&#xe0;" horiz-adv-x="546" 
d="M337 0l-5 115v130q0 35 -4 63t-20 44t-52 16q-25 0 -41 -12t-27 -28l-157 50q21 41 52.5 71t74 46.5t94.5 16.5q80 0 137 -29t87 -81t30 -121v-281h-169zM204 -12q-87 0 -135.5 39.5t-48.5 113.5q0 78 48.5 115.5t135.5 37.5h147v-103h-76q-35 0 -54 -12t-19 -34
q0 -15 13 -23t36 -8q25 0 43 9.5t28 27t10 40.5h47q0 -97 -46 -150t-129 -53zM194 554l-132 147h190l112 -147h-170z" />
    <glyph glyph-name="amacron" unicode="&#x101;" horiz-adv-x="546" 
d="M337 0l-5 115v130q0 35 -4 63t-20 44t-52 16q-25 0 -41 -12t-27 -28l-157 50q21 41 52.5 71t74 46.5t94.5 16.5q80 0 137 -29t87 -81t30 -121v-281h-169zM204 -12q-87 0 -135.5 39.5t-48.5 113.5q0 78 48.5 115.5t135.5 37.5h147v-103h-76q-35 0 -54 -12t-19 -34
q0 -15 13 -23t36 -8q25 0 43 9.5t28 27t10 40.5h47q0 -97 -46 -150t-129 -53zM82 549v151h340v-151h-340z" />
    <glyph glyph-name="aogonek" unicode="&#x105;" horiz-adv-x="546" 
d="M337 0l-5 115v130q0 35 -4 63t-20 44t-52 16q-25 0 -41 -12t-27 -28l-157 50q21 41 52.5 71t74 46.5t94.5 16.5q80 0 137 -29t87 -81t30 -121v-281h-169zM204 -12q-87 0 -135.5 39.5t-48.5 113.5q0 78 48.5 115.5t135.5 37.5h147v-103h-76q-35 0 -54 -12t-19 -34
q0 -15 13 -23t36 -8q25 0 43 9.5t28 27t10 40.5h47q0 -97 -46 -150t-129 -53zM467 -212q-42 0 -77.5 14t-57 41.5t-21.5 68.5q0 29 17 52.5t40 35.5h138q-27 -17 -41.5 -37.5t-14.5 -37.5q0 -8 5 -14t13 -6t14 2t11 5l52 -108q-15 -9 -34 -12.5t-44 -3.5z" />
    <glyph glyph-name="aring" unicode="&#xe5;" horiz-adv-x="546" 
d="M337 0l-5 115v130q0 35 -4 63t-20 44t-52 16q-25 0 -41 -12t-27 -28l-157 50q21 41 52.5 71t74 46.5t94.5 16.5q80 0 137 -29t87 -81t30 -121v-281h-169zM204 -12q-87 0 -135.5 39.5t-48.5 113.5q0 78 48.5 115.5t135.5 37.5h147v-103h-76q-35 0 -54 -12t-19 -34
q0 -15 13 -23t36 -8q25 0 43 9.5t28 27t10 40.5h47q0 -97 -46 -150t-129 -53zM252 520q-37 0 -68.5 17.5t-50.5 46.5t-19 65q0 37 19 66t50.5 46.5t68.5 17.5t68 -17.5t50 -46.5t19 -66q0 -36 -19 -65t-50 -46.5t-68 -17.5zM252 616q32 0 32 33q0 34 -32 34q-33 0 -33 -34
q0 -33 33 -33z" />
    <glyph glyph-name="atilde" unicode="&#xe3;" horiz-adv-x="546" 
d="M337 0l-5 115v130q0 35 -4 63t-20 44t-52 16q-25 0 -41 -12t-27 -28l-157 50q21 41 52.5 71t74 46.5t94.5 16.5q80 0 137 -29t87 -81t30 -121v-281h-169zM204 -12q-87 0 -135.5 39.5t-48.5 113.5q0 78 48.5 115.5t135.5 37.5h147v-103h-76q-35 0 -54 -12t-19 -34
q0 -15 13 -23t36 -8q25 0 43 9.5t28 27t10 40.5h47q0 -97 -46 -150t-129 -53zM333 534q-38 0 -58.5 11t-31.5 25t-21 25t-27 11q-7 0 -16 -6.5t-15 -32.5h-111q6 53 22.5 85t45 46t68.5 14q41 0 63.5 -11t34.5 -25t21 -25t24 -11q14 0 19 11.5t7 27.5h111
q-9 -70 -40.5 -107.5t-95.5 -37.5z" />
    <glyph glyph-name="ae" unicode="&#xe6;" horiz-adv-x="872" 
d="M337 160l-5 85q-2 35 -6 63t-21 44t-57 16q-22 0 -37 -9.5t-31 -30.5l-159 50q35 62 92 98t139 36q101 0 157.5 -63.5t56.5 -167.5v-121h-129zM204 -12q-87 0 -135.5 39.5t-48.5 113.5q0 78 48.5 115.5t135.5 37.5h147v-103h-78q-35 0 -54 -12t-19 -34q0 -15 12.5 -23
t34.5 -8q37 0 58.5 22t21.5 59l140 19q0 -109 -69.5 -167.5t-193.5 -58.5zM604 -12q-81 0 -144 33t-98.5 92t-35.5 137t35 137t97 92t143 33q77 0 135.5 -33.5t92 -101.5t33.5 -172h-374l22 26q0 -32 10 -56t30 -37t49 -13q33 0 57.5 15.5t30.5 38.5l158 -49
q-18 -52 -57.5 -83.5t-88 -45t-95.5 -13.5zM511 286l-19 29h207l-18 -29q0 39 -13 61t-32.5 31.5t-39.5 9.5q-21 0 -40.5 -9.5t-32 -31.5t-12.5 -61z" />
    <glyph glyph-name="b" unicode="b" horiz-adv-x="605" 
d="M45 0v700h180v-607l-9 -93h-171zM359 -12q-62 0 -102.5 31t-60 90t-19.5 141q0 83 19.5 141.5t60 89.5t102.5 31q71 0 121.5 -31t77.5 -89.5t27 -141.5q0 -82 -27 -141t-77.5 -90t-121.5 -31zM311 154q25 0 44 12.5t30.5 34t11.5 49.5t-11 49.5t-30 33.5t-44 12t-45 -12
t-31 -33.5t-11 -49.5t11 -49.5t30.5 -34t44.5 -12.5z" />
    <glyph glyph-name="c" unicode="c" horiz-adv-x="550" 
d="M302 -12q-82 0 -146 33.5t-100 93t-36 135.5q0 77 36 136t99 92.5t145 33.5q79 0 145 -41t94 -119l-172 -56q-8 20 -29.5 33t-47.5 13q-25 0 -44 -11.5t-30 -32.5t-11 -48t11 -47.5t31 -32.5t45 -12t46 13t30 33l172 -55q-28 -78 -93.5 -119.5t-144.5 -41.5z" />
    <glyph glyph-name="cacute" unicode="&#x107;" horiz-adv-x="550" 
d="M302 -12q-82 0 -146 33.5t-100 93t-36 135.5q0 77 36 136t99 92.5t145 33.5q79 0 145 -41t94 -119l-172 -56q-8 20 -29.5 33t-47.5 13q-25 0 -44 -11.5t-30 -32.5t-11 -48t11 -47.5t31 -32.5t45 -12t46 13t30 33l172 -55q-28 -78 -93.5 -119.5t-144.5 -41.5zM201 554
l110 146h190l-130 -146h-170z" />
    <glyph glyph-name="ccaron" unicode="&#x10d;" horiz-adv-x="550" 
d="M302 -12q-82 0 -146 33.5t-100 93t-36 135.5q0 77 36 136t99 92.5t145 33.5q79 0 145 -41t94 -119l-172 -56q-8 20 -29.5 33t-47.5 13q-25 0 -44 -11.5t-30 -32.5t-11 -48t11 -47.5t31 -32.5t45 -12t46 13t30 33l172 -55q-28 -78 -93.5 -119.5t-144.5 -41.5zM220 554v5
l137 141h150l-127 -146h-160zM209 554l-127 146h150l137 -141v-5h-160z" />
    <glyph glyph-name="ccedilla" unicode="&#xe7;" horiz-adv-x="550" 
d="M302 -12q-82 0 -146 33.5t-100 93t-36 135.5q0 77 36 136t99 92.5t145 33.5q79 0 145 -41t94 -119l-172 -56q-8 20 -29.5 33t-47.5 13q-25 0 -44 -11.5t-30 -32.5t-11 -48t11 -47.5t31 -32.5t45 -12t46 13t30 33l172 -55q-28 -78 -93.5 -119.5t-144.5 -41.5zM248 -211
q-24 0 -49.5 8.5t-46.5 22.5l21 76q14 -7 26.5 -10.5t20.5 -3.5q17 0 27 5t10 14q0 14 -14.5 21.5t-40.5 7.5l30 75h97l-15 -32q34 -11 53 -33t19 -49q0 -48 -36.5 -75t-101.5 -27z" />
    <glyph glyph-name="ccircumflex" unicode="&#x109;" horiz-adv-x="550" 
d="M302 -12q-82 0 -146 33.5t-100 93t-36 135.5q0 77 36 136t99 92.5t145 33.5q79 0 145 -41t94 -119l-172 -56q-8 20 -29.5 33t-47.5 13q-25 0 -44 -11.5t-30 -32.5t-11 -48t11 -47.5t31 -32.5t45 -12t46 13t30 33l172 -55q-28 -78 -93.5 -119.5t-144.5 -41.5zM357 565
l-147 134v13h170l127 -147h-150zM82 565l127 147h170v-13l-147 -134h-150z" />
    <glyph glyph-name="cdotaccent" unicode="&#x10b;" horiz-adv-x="550" 
d="M302 -12q-82 0 -146 33.5t-100 93t-36 135.5q0 77 36 136t99 92.5t145 33.5q79 0 145 -41t94 -119l-172 -56q-8 20 -29.5 33t-47.5 13q-25 0 -44 -11.5t-30 -32.5t-11 -48t11 -47.5t31 -32.5t45 -12t46 13t30 33l172 -55q-28 -78 -93.5 -119.5t-144.5 -41.5zM300 548
q-40 0 -70 30t-30 70q0 41 30 70.5t70 29.5q41 0 70.5 -29.5t29.5 -70.5q0 -40 -29.5 -70t-70.5 -30z" />
    <glyph glyph-name="d" unicode="d" horiz-adv-x="604" 
d="M388 0l-9 93v607h180v-700h-171zM246 -12q-71 0 -121.5 31t-77.5 90t-27 141q0 83 27 141.5t77.5 89.5t121.5 31q62 0 102.5 -31t60 -89.5t19.5 -141.5q0 -82 -19.5 -141t-60 -90t-102.5 -31zM294 154q25 0 44.5 12.5t30.5 34t11 49.5t-11 49.5t-30.5 33.5t-45.5 12
q-24 0 -43 -12t-30 -33.5t-12 -49.5q1 -28 12 -49.5t30.5 -34t43.5 -12.5z" />
    <glyph glyph-name="dcaron" unicode="&#x10f;" horiz-adv-x="604" 
d="M388 0l-9 93v607h180v-700h-171zM246 -12q-71 0 -121.5 31t-77.5 90t-27 141q0 83 27 141.5t77.5 89.5t121.5 31q62 0 102.5 -31t60 -89.5t19.5 -141.5q0 -82 -19.5 -141t-60 -90t-102.5 -31zM294 154q25 0 44.5 12.5t30.5 34t11 49.5t-11 49.5t-30.5 33.5t-45.5 12
q-24 0 -43 -12t-30 -33.5t-12 -49.5q1 -28 12 -49.5t30.5 -34t43.5 -12.5zM575 552l23 148h150l-43 -148h-130z" />
    <glyph glyph-name="dcroat" unicode="&#x111;" horiz-adv-x="604" 
d="M260 545v105h354v-105h-354zM388 0l-9 93v607h180v-700h-171zM246 -12q-71 0 -121.5 31t-77.5 90t-27 141q0 83 27 141.5t77.5 89.5t121.5 31q62 0 102.5 -31t60 -89.5t19.5 -141.5q0 -82 -19.5 -141t-60 -90t-102.5 -31zM294 154q25 0 44.5 12.5t30.5 34t11 49.5
t-11 49.5t-30.5 33.5t-45.5 12q-24 0 -43 -12t-30 -33.5t-12 -49.5q1 -28 12 -49.5t30.5 -34t43.5 -12.5z" />
    <glyph glyph-name="eth" unicode="&#xf0;" horiz-adv-x="560" 
d="M275 -12q-75 0 -132.5 29t-90 80.5t-32.5 118.5t28 118t80 80.5t122 29.5q32 0 65.5 -11.5t62 -30t46 -41.5t17.5 -46l88 -79q0 -72 -32.5 -128t-90 -88t-131.5 -32zM275 150q21 0 36 8.5t23.5 23.5t8.5 34t-8.5 33.5t-24.5 23t-37 8.5q-19 0 -34.5 -8.5t-24 -23
t-8.5 -33.5t8.5 -34t24 -23.5t36.5 -8.5zM358 333q1 51 -7.5 90.5t-32.5 69.5t-70.5 52.5t-122.5 40.5l32 145q99 -14 166.5 -48.5t109.5 -84t63.5 -109.5t28 -124.5t4.5 -128.5zM229 453l-42 60l271 194l44 -60z" />
    <glyph glyph-name="e" unicode="e" horiz-adv-x="566" 
d="M298 -12q-81 0 -144 33t-98.5 92t-35.5 137t35 137t97 92t143 33q77 0 135.5 -33.5t92 -101.5t33.5 -172h-374l22 26q0 -32 10 -56t30 -37t49 -13q33 0 57.5 15.5t30.5 38.5l158 -49q-18 -52 -57.5 -83.5t-88 -45t-95.5 -13.5zM205 286l-19 29h207l-18 -29q0 39 -13 61
t-32.5 31.5t-39.5 9.5q-21 0 -40.5 -9.5t-32 -31.5t-12.5 -61z" />
    <glyph glyph-name="eacute" unicode="&#xe9;" horiz-adv-x="566" 
d="M298 -12q-81 0 -144 33t-98.5 92t-35.5 137t35 137t97 92t143 33q77 0 135.5 -33.5t92 -101.5t33.5 -172h-374l22 26q0 -32 10 -56t30 -37t49 -13q33 0 57.5 15.5t30.5 38.5l158 -49q-18 -52 -57.5 -83.5t-88 -45t-95.5 -13.5zM205 286l-19 29h207l-18 -29q0 39 -13 61
t-32.5 31.5t-39.5 9.5q-21 0 -40.5 -9.5t-32 -31.5t-12.5 -61zM196 554l110 146h190l-130 -146h-170z" />
    <glyph glyph-name="ecaron" unicode="&#x11b;" horiz-adv-x="566" 
d="M298 -12q-81 0 -144 33t-98.5 92t-35.5 137t35 137t97 92t143 33q77 0 135.5 -33.5t92 -101.5t33.5 -172h-374l22 26q0 -32 10 -56t30 -37t49 -13q33 0 57.5 15.5t30.5 38.5l158 -49q-18 -52 -57.5 -83.5t-88 -45t-95.5 -13.5zM205 286l-19 29h207l-18 -29q0 39 -13 61
t-32.5 31.5t-39.5 9.5q-21 0 -40.5 -9.5t-32 -31.5t-12.5 -61zM215 554v5l137 141h150l-127 -146h-160zM204 554l-127 146h150l137 -141v-5h-160z" />
    <glyph glyph-name="ecircumflex" unicode="&#xea;" horiz-adv-x="566" 
d="M298 -12q-81 0 -144 33t-98.5 92t-35.5 137t35 137t97 92t143 33q77 0 135.5 -33.5t92 -101.5t33.5 -172h-374l22 26q0 -32 10 -56t30 -37t49 -13q33 0 57.5 15.5t30.5 38.5l158 -49q-18 -52 -57.5 -83.5t-88 -45t-95.5 -13.5zM205 286l-19 29h207l-18 -29q0 39 -13 61
t-32.5 31.5t-39.5 9.5q-21 0 -40.5 -9.5t-32 -31.5t-12.5 -61zM352 565l-147 134v13h170l127 -147h-150zM77 565l127 147h170v-13l-147 -134h-150z" />
    <glyph glyph-name="edieresis" unicode="&#xeb;" horiz-adv-x="566" 
d="M298 -12q-81 0 -144 33t-98.5 92t-35.5 137t35 137t97 92t143 33q77 0 135.5 -33.5t92 -101.5t33.5 -172h-374l22 26q0 -32 10 -56t30 -37t49 -13q33 0 57.5 15.5t30.5 38.5l158 -49q-18 -52 -57.5 -83.5t-88 -45t-95.5 -13.5zM205 286l-19 29h207l-18 -29q0 39 -13 61
t-32.5 31.5t-39.5 9.5q-21 0 -40.5 -9.5t-32 -31.5t-12.5 -61zM430 569q-35 0 -61.5 26.5t-26.5 61.5t26.5 61.5t61.5 26.5t61.5 -26.5t26.5 -61.5t-26.5 -61.5t-61.5 -26.5zM160 569q-36 0 -62 26t-26 62t26 62t62 26t62 -26t26 -62t-26 -62t-62 -26z" />
    <glyph glyph-name="edotaccent" unicode="&#x117;" horiz-adv-x="566" 
d="M298 -12q-81 0 -144 33t-98.5 92t-35.5 137t35 137t97 92t143 33q77 0 135.5 -33.5t92 -101.5t33.5 -172h-374l22 26q0 -32 10 -56t30 -37t49 -13q33 0 57.5 15.5t30.5 38.5l158 -49q-18 -52 -57.5 -83.5t-88 -45t-95.5 -13.5zM205 286l-19 29h207l-18 -29q0 39 -13 61
t-32.5 31.5t-39.5 9.5q-21 0 -40.5 -9.5t-32 -31.5t-12.5 -61zM295 548q-40 0 -70 30t-30 70q0 41 30 70.5t70 29.5q41 0 70.5 -29.5t29.5 -70.5q0 -40 -29.5 -70t-70.5 -30z" />
    <glyph glyph-name="egrave" unicode="&#xe8;" horiz-adv-x="566" 
d="M298 -12q-81 0 -144 33t-98.5 92t-35.5 137t35 137t97 92t143 33q77 0 135.5 -33.5t92 -101.5t33.5 -172h-374l22 26q0 -32 10 -56t30 -37t49 -13q33 0 57.5 15.5t30.5 38.5l158 -49q-18 -52 -57.5 -83.5t-88 -45t-95.5 -13.5zM205 286l-19 29h207l-18 -29q0 39 -13 61
t-32.5 31.5t-39.5 9.5q-21 0 -40.5 -9.5t-32 -31.5t-12.5 -61zM237 554l-132 147h190l112 -147h-170z" />
    <glyph glyph-name="emacron" unicode="&#x113;" horiz-adv-x="566" 
d="M298 -12q-81 0 -144 33t-98.5 92t-35.5 137t35 137t97 92t143 33q77 0 135.5 -33.5t92 -101.5t33.5 -172h-374l22 26q0 -32 10 -56t30 -37t49 -13q33 0 57.5 15.5t30.5 38.5l158 -49q-18 -52 -57.5 -83.5t-88 -45t-95.5 -13.5zM205 286l-19 29h207l-18 -29q0 39 -13 61
t-32.5 31.5t-39.5 9.5q-21 0 -40.5 -9.5t-32 -31.5t-12.5 -61zM125 549v151h340v-151h-340z" />
    <glyph glyph-name="eogonek" unicode="&#x119;" horiz-adv-x="566" 
d="M298 -12q-81 0 -144 33t-98.5 92t-35.5 137t35 137t97 92t143 33q77 0 135.5 -33.5t92 -101.5t33.5 -172h-374l22 26q0 -32 10 -56t30 -37t49 -13q33 0 57.5 15.5t30.5 38.5l158 -49q-18 -52 -57.5 -83.5t-88 -45t-95.5 -13.5zM205 286l-19 29h207l-18 -29q0 39 -13 61
t-32.5 31.5t-39.5 9.5q-21 0 -40.5 -9.5t-32 -31.5t-12.5 -61zM476 -212q-47 0 -87.5 12t-64.5 36t-24 60t22.5 63t60.5 50.5t83 50.5h30q-31 -31 -45 -52.5t-17.5 -38t-3.5 -32.5q0 -15 9 -24t25 -9q13 0 21.5 2t16.5 5l52 -107q-15 -9 -34 -12.5t-44 -3.5z" />
    <glyph glyph-name="f" unicode="f" horiz-adv-x="415" 
d="M95 0v543q0 83 45 132t138 49q38 0 77.5 -12.5t64.5 -28.5l-67 -125q-9 8 -19.5 11t-20.5 3q-20 0 -29 -14.5t-9 -50.5v-507h-180zM20 360v140h358v-140h-358z" />
    <glyph glyph-name="g" unicode="g" horiz-adv-x="614" 
d="M292 -214q-65 0 -112.5 7t-80.5 20.5t-57 32.5l71 143q16 -8 37.5 -18.5t53.5 -18.5t79 -8q31 0 55 12t37.5 36t13.5 60v448h180v-440q0 -83 -31.5 -145t-93 -95.5t-152.5 -33.5zM246 24q-71 0 -121.5 27.5t-77.5 79t-27 123.5q0 81 27 138.5t77.5 88.5t121.5 31
q57 0 98 -31t62.5 -89.5t21.5 -141.5q0 -71 -21.5 -121.5t-62.5 -77.5t-98 -27zM301 173q25 0 42.5 11.5t27 31.5t9.5 45q0 27 -10 47t-27.5 31t-42.5 11q-24 0 -42 -11t-28 -31t-11 -47q1 -25 11 -45t28.5 -31.5t42.5 -11.5z" />
    <glyph glyph-name="gbreve" unicode="&#x11f;" horiz-adv-x="614" 
d="M292 -214q-65 0 -112.5 7t-80.5 20.5t-57 32.5l71 143q16 -8 37.5 -18.5t53.5 -18.5t79 -8q31 0 55 12t37.5 36t13.5 60v448h180v-440q0 -83 -31.5 -145t-93 -95.5t-152.5 -33.5zM246 24q-71 0 -121.5 27.5t-77.5 79t-27 123.5q0 81 27 138.5t77.5 88.5t121.5 31
q57 0 98 -31t62.5 -89.5t21.5 -141.5q0 -71 -21.5 -121.5t-62.5 -77.5t-98 -27zM301 173q25 0 42.5 11.5t27 31.5t9.5 45q0 27 -10 47t-27.5 31t-42.5 11q-24 0 -42 -11t-28 -31t-11 -47q1 -25 11 -45t28.5 -31.5t42.5 -11.5zM306 542q-59 0 -105 20t-72 56t-26 82h164
q0 -17 11 -28t28 -11t27.5 11t10.5 28h164q0 -46 -26 -82t-71.5 -56t-104.5 -20z" />
    <glyph glyph-name="gcircumflex" unicode="&#x11d;" horiz-adv-x="614" 
d="M292 -214q-65 0 -112.5 7t-80.5 20.5t-57 32.5l71 143q16 -8 37.5 -18.5t53.5 -18.5t79 -8q31 0 55 12t37.5 36t13.5 60v448h180v-440q0 -83 -31.5 -145t-93 -95.5t-152.5 -33.5zM246 24q-71 0 -121.5 27.5t-77.5 79t-27 123.5q0 81 27 138.5t77.5 88.5t121.5 31
q57 0 98 -31t62.5 -89.5t21.5 -141.5q0 -71 -21.5 -121.5t-62.5 -77.5t-98 -27zM301 173q25 0 42.5 11.5t27 31.5t9.5 45q0 27 -10 47t-27.5 31t-42.5 11q-24 0 -42 -11t-28 -31t-11 -47q1 -25 11 -45t28.5 -31.5t42.5 -11.5zM362 565l-147 134v13h170l127 -147h-150z
M87 565l127 147h170v-13l-147 -134h-150z" />
    <glyph glyph-name="uni0123" unicode="&#x123;" horiz-adv-x="614" 
d="M292 -214q-65 0 -112.5 7t-80.5 20.5t-57 32.5l71 143q16 -8 37.5 -18.5t53.5 -18.5t79 -8q31 0 55 12t37.5 36t13.5 60v448h180v-440q0 -83 -31.5 -145t-93 -95.5t-152.5 -33.5zM246 24q-71 0 -121.5 27.5t-77.5 79t-27 123.5q0 81 27 138.5t77.5 88.5t121.5 31
q57 0 98 -31t62.5 -89.5t21.5 -141.5q0 -71 -21.5 -121.5t-62.5 -77.5t-98 -27zM301 173q25 0 42.5 11.5t27 31.5t9.5 45q0 27 -10 47t-27.5 31t-42.5 11q-24 0 -42 -11t-28 -31t-11 -47q1 -25 11 -45t28.5 -31.5t42.5 -11.5zM448 713l-66 -149h-180l116 149h130z" />
    <glyph glyph-name="gdotaccent" unicode="&#x121;" horiz-adv-x="614" 
d="M292 -214q-65 0 -112.5 7t-80.5 20.5t-57 32.5l71 143q16 -8 37.5 -18.5t53.5 -18.5t79 -8q31 0 55 12t37.5 36t13.5 60v448h180v-440q0 -83 -31.5 -145t-93 -95.5t-152.5 -33.5zM246 24q-71 0 -121.5 27.5t-77.5 79t-27 123.5q0 81 27 138.5t77.5 88.5t121.5 31
q57 0 98 -31t62.5 -89.5t21.5 -141.5q0 -71 -21.5 -121.5t-62.5 -77.5t-98 -27zM301 173q25 0 42.5 11.5t27 31.5t9.5 45q0 27 -10 47t-27.5 31t-42.5 11q-24 0 -42 -11t-28 -31t-11 -47q1 -25 11 -45t28.5 -31.5t42.5 -11.5zM305 548q-40 0 -70 30t-30 70q0 41 30 70.5
t70 29.5q41 0 70.5 -29.5t29.5 -70.5q0 -40 -29.5 -70t-70.5 -30z" />
    <glyph glyph-name="h" unicode="h" horiz-adv-x="580" 
d="M47 0v700h180v-700h-180zM360 0v256h180v-256h-180zM360 256q0 29 -6.5 47.5t-19 28.5t-31.5 11q-38 2 -57 -17t-19 -60h-49q0 79 24 134t65 83.5t93 28.5q61 0 101 -24.5t59.5 -74.5t19.5 -127v-30h-180z" />
    <glyph glyph-name="hbar" unicode="&#x127;" horiz-adv-x="580" 
d="M0 545v105h354v-105h-354zM47 0v700h180v-700h-180zM360 0v256h180v-256h-180zM360 256q0 29 -6.5 47.5t-19 28.5t-31.5 11q-38 2 -57 -17t-19 -60h-49q0 79 24 134t65 83.5t93 28.5q61 0 101 -24.5t59.5 -74.5t19.5 -127v-30h-180z" />
    <glyph glyph-name="hcircumflex" unicode="&#x125;" horiz-adv-x="580" 
d="M47 0v700h180v-700h-180zM360 0v256h180v-256h-180zM360 256q0 29 -6.5 47.5t-19 28.5t-31.5 11q-38 2 -57 -17t-19 -60h-49q0 79 24 134t65 83.5t93 28.5q61 0 101 -24.5t59.5 -74.5t19.5 -127v-30h-180zM192 765l-147 134v13h170l127 -147h-150zM-83 765l127 147h170
v-13l-147 -134h-150z" />
    <glyph glyph-name="i" unicode="i" horiz-adv-x="290" 
d="M55 0v500h180v-500h-180zM145 548q-40 0 -70 30t-30 70q0 41 30 70.5t70 29.5q41 0 70.5 -29.5t29.5 -70.5q0 -40 -29.5 -70t-70.5 -30z" />
    <glyph glyph-name="dotlessi" unicode="&#x131;" horiz-adv-x="290" 
d="M55 0v500h180v-500h-180z" />
    <glyph glyph-name="iacute" unicode="&#xed;" horiz-adv-x="290" 
d="M55 0v500h180v-500h-180zM46 554l110 146h190l-130 -146h-170z" />
    <glyph glyph-name="icircumflex" unicode="&#xee;" horiz-adv-x="290" 
d="M55 0v500h180v-500h-180zM202 565l-147 134v13h170l127 -147h-150zM-73 565l127 147h170v-13l-147 -134h-150z" />
    <glyph glyph-name="idieresis" unicode="&#xef;" horiz-adv-x="290" 
d="M245 569q-35 0 -61.5 26.5t-26.5 61.5t26.5 61.5t61.5 26.5t61.5 -26.5t26.5 -61.5t-26.5 -61.5t-61.5 -26.5zM45 569q-36 0 -62 26t-26 62t26 62t62 26t62 -26t26 -62t-26 -62t-62 -26zM55 0v500h180v-500h-180z" />
    <glyph glyph-name="i.loclTRK" horiz-adv-x="290" 
d="M55 0v500h180v-500h-180zM145 548q-40 0 -70 30t-30 70q0 41 30 70.5t70 29.5q41 0 70.5 -29.5t29.5 -70.5q0 -40 -29.5 -70t-70.5 -30z" />
    <glyph glyph-name="igrave" unicode="&#xec;" horiz-adv-x="290" 
d="M55 0v500h180v-500h-180zM87 554l-132 147h190l112 -147h-170z" />
    <glyph glyph-name="imacron" unicode="&#x12b;" horiz-adv-x="290" 
d="M55 0v500h180v-500h-180zM-5 549v151h300v-151h-300z" />
    <glyph glyph-name="iogonek" unicode="&#x12f;" horiz-adv-x="290" 
d="M55 0v500h180v-500h-180zM145 548q-40 0 -70 30t-30 70q0 41 30 70.5t70 29.5q41 0 70.5 -29.5t29.5 -70.5q0 -40 -29.5 -70t-70.5 -30zM196 -212q-42 0 -77.5 14t-57 41.5t-21.5 68.5q0 29 17 52.5t40 35.5h138q-27 -17 -41.5 -37.5t-14.5 -37.5q0 -8 5 -14t13 -6t14 2
t11 5l52 -108q-15 -9 -34 -12.5t-44 -3.5z" />
    <glyph glyph-name="ij" unicode="&#x133;" horiz-adv-x="601" 
d="M55 0v500h180v-500h-180zM145 548q-40 0 -70 30t-30 70q0 41 30 70.5t70 29.5q41 0 70.5 -29.5t29.5 -70.5q0 -40 -29.5 -70t-70.5 -30zM453 542q-42 0 -72.5 30.5t-30.5 72.5t30.5 72.5t72.5 30.5t72.5 -30.5t30.5 -72.5t-30.5 -72.5t-72.5 -30.5zM342 -215
q-74 0 -122 35l74 149q9 -7 19.5 -11.5t20.5 -4.5q29 0 29 40v507h180v-521q0 -91 -53 -142.5t-148 -51.5z" />
    <glyph glyph-name="j" unicode="j" horiz-adv-x="311" 
d="M163 542q-42 0 -72.5 30.5t-30.5 72.5t30.5 72.5t72.5 30.5t72.5 -30.5t30.5 -72.5t-30.5 -72.5t-72.5 -30.5zM52 -215q-74 0 -122 35l74 149q9 -7 19.5 -11.5t20.5 -4.5q29 0 29 40v507h180v-521q0 -91 -53 -142.5t-148 -51.5z" />
    <glyph glyph-name="uni0237" unicode="&#x237;" horiz-adv-x="298" 
d="M52 -215q-74 0 -122 35l74 149q9 -7 19.5 -11.5t20.5 -4.5q29 0 29 40v507h180v-521q0 -91 -53 -142.5t-148 -51.5z" />
    <glyph glyph-name="uni006A0301" horiz-adv-x="298" 
d="M52 -215q-74 0 -122 35l74 149q9 -7 19.5 -11.5t20.5 -4.5q29 0 29 40v507h180v-521q0 -91 -53 -142.5t-148 -51.5zM64 554l110 146h190l-130 -146h-170z" />
    <glyph glyph-name="jcircumflex" unicode="&#x135;" horiz-adv-x="298" 
d="M52 -215q-74 0 -122 35l74 149q9 -7 19.5 -11.5t20.5 -4.5q29 0 29 40v507h180v-521q0 -91 -53 -142.5t-148 -51.5zM220 565l-147 134v13h170l127 -147h-150zM-55 565l127 147h170v-13l-147 -134h-150z" />
    <glyph glyph-name="k" unicode="k" horiz-adv-x="586" 
d="M215 95l-105 125l246 280h210zM45 0v700h180v-700h-180zM369 0l-144 200l118 123l233 -323h-207z" />
    <glyph glyph-name="uni0137" unicode="&#x137;" horiz-adv-x="586" 
d="M215 95l-105 125l246 280h210zM45 0v700h180v-700h-180zM369 0l-144 200l118 123l233 -323h-207zM168 -200l46 160h168l-84 -160h-130z" />
    <glyph glyph-name="l" unicode="l" horiz-adv-x="270" 
d="M45 0v700h180v-700h-180z" />
    <glyph glyph-name="lacute" unicode="&#x13a;" horiz-adv-x="270" 
d="M45 0v700h180v-700h-180zM36 754l110 146h190l-130 -146h-170z" />
    <glyph glyph-name="lcaron" unicode="&#x13e;" horiz-adv-x="270" 
d="M45 0v700h180v-700h-180zM242 552l23 148h150l-43 -148h-130z" />
    <glyph glyph-name="uni013C" unicode="&#x13c;" horiz-adv-x="270" 
d="M45 0v700h180v-700h-180zM16 -200l46 160h168l-84 -160h-130z" />
    <glyph glyph-name="lslash" unicode="&#x142;" horiz-adv-x="290" 
d="M0 204v138l290 154v-138zM55 0v700h180v-700h-180z" />
    <glyph glyph-name="m" unicode="m" horiz-adv-x="891" 
d="M45 0v500h170l7 -61q24 36 59 54.5t77 18.5q62 0 102 -24.5t59 -75.5q24 49 63.5 74.5t88.5 25.5q92 0 136 -55t44 -171v-286h-180v256q0 29 -6.5 47.5t-19 28.5t-31.5 11q-38 2 -57 -17t-19 -60v-266h-180v256q0 29 -6.5 47.5t-19 28.5t-31.5 11q-38 2 -57 -17t-19 -60
v-266h-180z" />
    <glyph glyph-name="n" unicode="n" horiz-adv-x="578" 
d="M45 0v500h170l10 -92v-408h-180zM358 0v256h180v-256h-180zM358 256q0 29 -6.5 47.5t-19 28.5t-31.5 11q-38 2 -57 -17t-19 -60h-49q0 79 24 134t65 83.5t93 28.5q61 0 101 -24.5t59.5 -74.5t19.5 -127v-30h-180z" />
    <glyph glyph-name="nacute" unicode="&#x144;" horiz-adv-x="578" 
d="M45 0v500h170l10 -92v-408h-180zM358 0v256h180v-256h-180zM358 256q0 29 -6.5 47.5t-19 28.5t-31.5 11q-38 2 -57 -17t-19 -60h-49q0 79 24 134t65 83.5t93 28.5q61 0 101 -24.5t59.5 -74.5t19.5 -127v-30h-180zM185 554l110 146h190l-130 -146h-170z" />
    <glyph glyph-name="ncaron" unicode="&#x148;" horiz-adv-x="578" 
d="M45 0v500h170l10 -92v-408h-180zM358 0v256h180v-256h-180zM358 256q0 29 -6.5 47.5t-19 28.5t-31.5 11q-38 2 -57 -17t-19 -60h-49q0 79 24 134t65 83.5t93 28.5q61 0 101 -24.5t59.5 -74.5t19.5 -127v-30h-180zM204 554v5l137 141h150l-127 -146h-160zM193 554
l-127 146h150l137 -141v-5h-160z" />
    <glyph glyph-name="uni0146" unicode="&#x146;" horiz-adv-x="578" 
d="M45 0v500h170l10 -92v-408h-180zM358 0v256h180v-256h-180zM358 256q0 29 -6.5 47.5t-19 28.5t-31.5 11q-38 2 -57 -17t-19 -60h-49q0 79 24 134t65 83.5t93 28.5q61 0 101 -24.5t59.5 -74.5t19.5 -127v-30h-180zM165 -200l46 160h168l-84 -160h-130z" />
    <glyph glyph-name="ntilde" unicode="&#xf1;" horiz-adv-x="578" 
d="M45 0v500h170l10 -92v-408h-180zM358 0v256h180v-256h-180zM358 256q0 29 -6.5 47.5t-19 28.5t-31.5 11q-38 2 -57 -17t-19 -60h-49q0 79 24 134t65 83.5t93 28.5q61 0 101 -24.5t59.5 -74.5t19.5 -127v-30h-180zM365 534q-38 0 -58.5 11t-31.5 25t-21 25t-27 11
q-7 0 -16 -6.5t-15 -32.5h-111q6 53 22.5 85t45 46t68.5 14q41 0 63.5 -11t34.5 -25t21 -25t24 -11q14 0 19 11.5t7 27.5h111q-9 -70 -40.5 -107.5t-95.5 -37.5z" />
    <glyph glyph-name="eng" unicode="&#x14b;" horiz-adv-x="578" 
d="M337 -215q-74 0 -122 35l74 149q9 -7 19.5 -11.5t20.5 -4.5q29 0 29 40v7h180v-21q0 -91 -53 -142.5t-148 -51.5zM45 0v500h170l10 -92v-408h-180zM358 0v256h180v-256h-180zM358 256q0 29 -6.5 47.5t-19 28.5t-31.5 11q-38 2 -57 -17t-19 -60h-49q0 79 24 134t65 83.5
t93 28.5q61 0 101 -24.5t59.5 -74.5t19.5 -127v-30h-180z" />
    <glyph glyph-name="o" unicode="o" horiz-adv-x="583" 
d="M293 -12q-80 0 -141.5 33.5t-96.5 92.5t-35 136t34.5 136t96 92.5t140.5 33.5q80 0 141.5 -33.5t96 -92.5t34.5 -136t-34.5 -136t-95.5 -92.5t-140 -33.5zM293 154q25 0 44 12.5t30 34t11 49.5t-11 49.5t-30.5 34t-45.5 12.5q-25 0 -44.5 -12.5t-30.5 -34t-11 -49.5
t11 -49.5t31 -34t46 -12.5z" />
    <glyph glyph-name="oacute" unicode="&#xf3;" horiz-adv-x="583" 
d="M293 -12q-80 0 -141.5 33.5t-96.5 92.5t-35 136t34.5 136t96 92.5t140.5 33.5q80 0 141.5 -33.5t96 -92.5t34.5 -136t-34.5 -136t-95.5 -92.5t-140 -33.5zM293 154q25 0 44 12.5t30 34t11 49.5t-11 49.5t-30.5 34t-45.5 12.5q-25 0 -44.5 -12.5t-30.5 -34t-11 -49.5
t11 -49.5t31 -34t46 -12.5zM187 554l110 146h190l-130 -146h-170z" />
    <glyph glyph-name="ocircumflex" unicode="&#xf4;" horiz-adv-x="583" 
d="M293 -12q-80 0 -141.5 33.5t-96.5 92.5t-35 136t34.5 136t96 92.5t140.5 33.5q80 0 141.5 -33.5t96 -92.5t34.5 -136t-34.5 -136t-95.5 -92.5t-140 -33.5zM293 154q25 0 44 12.5t30 34t11 49.5t-11 49.5t-30.5 34t-45.5 12.5q-25 0 -44.5 -12.5t-30.5 -34t-11 -49.5
t11 -49.5t31 -34t46 -12.5zM343 565l-147 134v13h170l127 -147h-150zM68 565l127 147h170v-13l-147 -134h-150z" />
    <glyph glyph-name="odieresis" unicode="&#xf6;" horiz-adv-x="583" 
d="M293 -12q-80 0 -141.5 33.5t-96.5 92.5t-35 136t34.5 136t96 92.5t140.5 33.5q80 0 141.5 -33.5t96 -92.5t34.5 -136t-34.5 -136t-95.5 -92.5t-140 -33.5zM293 154q25 0 44 12.5t30 34t11 49.5t-11 49.5t-30.5 34t-45.5 12.5q-25 0 -44.5 -12.5t-30.5 -34t-11 -49.5
t11 -49.5t31 -34t46 -12.5zM421 569q-35 0 -61.5 26.5t-26.5 61.5t26.5 61.5t61.5 26.5t61.5 -26.5t26.5 -61.5t-26.5 -61.5t-61.5 -26.5zM151 569q-36 0 -62 26t-26 62t26 62t62 26t62 -26t26 -62t-26 -62t-62 -26z" />
    <glyph glyph-name="ograve" unicode="&#xf2;" horiz-adv-x="583" 
d="M293 -12q-80 0 -141.5 33.5t-96.5 92.5t-35 136t34.5 136t96 92.5t140.5 33.5q80 0 141.5 -33.5t96 -92.5t34.5 -136t-34.5 -136t-95.5 -92.5t-140 -33.5zM293 154q25 0 44 12.5t30 34t11 49.5t-11 49.5t-30.5 34t-45.5 12.5q-25 0 -44.5 -12.5t-30.5 -34t-11 -49.5
t11 -49.5t31 -34t46 -12.5zM228 554l-132 147h190l112 -147h-170z" />
    <glyph glyph-name="ohungarumlaut" unicode="&#x151;" horiz-adv-x="583" 
d="M293 -12q-80 0 -141.5 33.5t-96.5 92.5t-35 136t34.5 136t96 92.5t140.5 33.5q80 0 141.5 -33.5t96 -92.5t34.5 -136t-34.5 -136t-95.5 -92.5t-140 -33.5zM293 154q25 0 44 12.5t30 34t11 49.5t-11 49.5t-30.5 34t-45.5 12.5q-25 0 -44.5 -12.5t-30.5 -34t-11 -49.5
t11 -49.5t31 -34t46 -12.5zM330 554l100 146h170l-122 -146h-148zM100 554l96 146h170l-120 -146h-146z" />
    <glyph glyph-name="omacron" unicode="&#x14d;" horiz-adv-x="583" 
d="M293 -12q-80 0 -141.5 33.5t-96.5 92.5t-35 136t34.5 136t96 92.5t140.5 33.5q80 0 141.5 -33.5t96 -92.5t34.5 -136t-34.5 -136t-95.5 -92.5t-140 -33.5zM293 154q25 0 44 12.5t30 34t11 49.5t-11 49.5t-30.5 34t-45.5 12.5q-25 0 -44.5 -12.5t-30.5 -34t-11 -49.5
t11 -49.5t31 -34t46 -12.5zM116 549v151h340v-151h-340z" />
    <glyph glyph-name="oslash" unicode="&#xf8;" horiz-adv-x="578" 
d="M7 0l422 500h142l-423 -500h-141zM288 -12q-80 0 -141.5 33.5t-96.5 92.5t-35 136t34.5 136t96 92.5t140.5 33.5q80 0 141.5 -33.5t96 -92.5t34.5 -136t-34.5 -136t-95.5 -92.5t-140 -33.5zM288 154q25 0 44 12.5t30 34t11 49.5t-11 49.5t-30.5 34t-45.5 12.5
q-25 0 -44.5 -12.5t-30.5 -34t-11 -49.5t11 -49.5t31 -34t46 -12.5z" />
    <glyph glyph-name="otilde" unicode="&#xf5;" horiz-adv-x="583" 
d="M293 -12q-80 0 -141.5 33.5t-96.5 92.5t-35 136t34.5 136t96 92.5t140.5 33.5q80 0 141.5 -33.5t96 -92.5t34.5 -136t-34.5 -136t-95.5 -92.5t-140 -33.5zM293 154q25 0 44 12.5t30 34t11 49.5t-11 49.5t-30.5 34t-45.5 12.5q-25 0 -44.5 -12.5t-30.5 -34t-11 -49.5
t11 -49.5t31 -34t46 -12.5zM367 534q-38 0 -58.5 11t-31.5 25t-21 25t-27 11q-7 0 -16 -6.5t-15 -32.5h-111q6 53 22.5 85t45 46t68.5 14q41 0 63.5 -11t34.5 -25t21 -25t24 -11q14 0 19 11.5t7 27.5h111q-9 -70 -40.5 -107.5t-95.5 -37.5z" />
    <glyph glyph-name="oe" unicode="&#x153;" horiz-adv-x="1008" 
d="M293 -12q-80 0 -141.5 33.5t-96.5 92.5t-35 136t34.5 136t96 92.5t140.5 33.5q80 0 141.5 -33.5t96 -92.5t34.5 -136t-34.5 -136t-95.5 -92.5t-140 -33.5zM293 154q25 0 44 12.5t30 34t11 49.5t-11 49.5t-30.5 34t-45.5 12.5q-25 0 -44.5 -12.5t-30.5 -34t-11 -49.5
t11 -49.5t31 -34t46 -12.5zM740 -12q-81 0 -144 33t-98.5 92t-35.5 137t35 137t97 92t143 33q77 0 135.5 -33.5t92 -101.5t33.5 -172h-374l22 26q0 -32 10 -56t30 -37t49 -13q33 0 57.5 15.5t30.5 38.5l158 -49q-18 -52 -57.5 -83.5t-88 -45t-95.5 -13.5zM647 286l-19 29
h207l-18 -29q0 39 -13 61t-32.5 31.5t-39.5 9.5q-21 0 -40.5 -9.5t-32 -31.5t-12.5 -61z" />
    <glyph glyph-name="p" unicode="p" horiz-adv-x="610" 
d="M50 -200v700h170l10 -92v-608h-180zM364 -12q-62 0 -102.5 31t-60 90t-19.5 141q0 83 19.5 141.5t60 89.5t102.5 31q71 0 121.5 -31t77.5 -89.5t27 -141.5q0 -82 -27 -141t-77.5 -90t-121.5 -31zM316 154q25 0 44 12.5t30.5 34t11.5 49.5t-11 49.5t-30 33.5t-44 12
t-45 -12t-31 -33.5t-11 -49.5t11 -49.5t30.5 -34t44.5 -12.5z" />
    <glyph glyph-name="thorn" unicode="&#xfe;" horiz-adv-x="605" 
d="M45 -200v900h180v-900h-180zM359 -12q-62 0 -102.5 31t-60 90t-19.5 141q0 83 19.5 141.5t60 89.5t102.5 31q71 0 121.5 -31t77.5 -89.5t27 -141.5q0 -82 -27 -141t-77.5 -90t-121.5 -31zM311 154q25 0 44 12.5t30.5 34t11.5 49.5t-11 49.5t-30 33.5t-44 12t-45 -12
t-31 -33.5t-11 -49.5t11 -49.5t30.5 -34t44.5 -12.5z" />
    <glyph glyph-name="q" unicode="q" horiz-adv-x="605" 
d="M380 -200v607l10 93h170v-700h-180zM246 -12q-71 0 -121.5 31t-77.5 90t-27 141q0 83 27 141.5t77.5 89.5t121.5 31q62 0 102.5 -31t60 -89.5t19.5 -141.5q0 -82 -19.5 -141t-60 -90t-102.5 -31zM294 154q25 0 44.5 12.5t30.5 34t11 49.5t-11 49.5t-30.5 33.5t-45.5 12
q-24 0 -43 -12t-30 -33.5t-12 -49.5q1 -28 12 -49.5t30.5 -34t43.5 -12.5z" />
    <glyph glyph-name="r" unicode="r" horiz-adv-x="417" 
d="M183 255q0 81 32.5 136t82.5 83t104 28v-176q-47 0 -87.5 -8.5t-65 -25.5t-24.5 -41zM45 0v500h180v-500h-180z" />
    <glyph glyph-name="racute" unicode="&#x155;" horiz-adv-x="417" 
d="M183 255q0 81 32.5 136t82.5 83t104 28v-176q-47 0 -87.5 -8.5t-65 -25.5t-24.5 -41zM45 0v500h180v-500h-180zM89 554l110 146h190l-130 -146h-170z" />
    <glyph glyph-name="rcaron" unicode="&#x159;" horiz-adv-x="417" 
d="M183 255q0 81 32.5 136t82.5 83t104 28v-176q-47 0 -87.5 -8.5t-65 -25.5t-24.5 -41zM45 0v500h180v-500h-180zM108 554v5l137 141h150l-127 -146h-160zM97 554l-127 146h150l137 -141v-5h-160z" />
    <glyph glyph-name="uni0157" unicode="&#x157;" horiz-adv-x="417" 
d="M183 255q0 81 32.5 136t82.5 83t104 28v-176q-47 0 -87.5 -8.5t-65 -25.5t-24.5 -41zM45 0v500h180v-500h-180zM45 -200l46 160h168l-84 -160h-130z" />
    <glyph glyph-name="s" unicode="s" horiz-adv-x="491" 
d="M234 -12q-50 0 -93 14t-73.5 39.5t-42.5 61.5l143 56q11 -27 31 -34.5t35 -7.5q16 0 26 7t10 20q0 14 -14 23.5t-43 16.5l-41 10q-67 17 -101 59t-34 98q0 77 56.5 119t153.5 42q59 0 99.5 -14.5t66.5 -40.5t40 -60l-139 -53q-7 20 -23.5 29t-40.5 9q-17 0 -26.5 -8
t-9.5 -19q0 -12 14.5 -20.5t44.5 -16.5l41 -10q46 -11 80 -33.5t53 -55.5t19 -76q0 -49 -29 -83.5t-81 -53t-122 -18.5z" />
    <glyph glyph-name="sacute" unicode="&#x15b;" horiz-adv-x="491" 
d="M234 -12q-50 0 -93 14t-73.5 39.5t-42.5 61.5l143 56q11 -27 31 -34.5t35 -7.5q16 0 26 7t10 20q0 14 -14 23.5t-43 16.5l-41 10q-67 17 -101 59t-34 98q0 77 56.5 119t153.5 42q59 0 99.5 -14.5t66.5 -40.5t40 -60l-139 -53q-7 20 -23.5 29t-40.5 9q-17 0 -26.5 -8
t-9.5 -19q0 -12 14.5 -20.5t44.5 -16.5l41 -10q46 -11 80 -33.5t53 -55.5t19 -76q0 -49 -29 -83.5t-81 -53t-122 -18.5zM148 554l110 146h190l-130 -146h-170z" />
    <glyph glyph-name="scaron" unicode="&#x161;" horiz-adv-x="491" 
d="M234 -12q-50 0 -93 14t-73.5 39.5t-42.5 61.5l143 56q11 -27 31 -34.5t35 -7.5q16 0 26 7t10 20q0 14 -14 23.5t-43 16.5l-41 10q-67 17 -101 59t-34 98q0 77 56.5 119t153.5 42q59 0 99.5 -14.5t66.5 -40.5t40 -60l-139 -53q-7 20 -23.5 29t-40.5 9q-17 0 -26.5 -8
t-9.5 -19q0 -12 14.5 -20.5t44.5 -16.5l41 -10q46 -11 80 -33.5t53 -55.5t19 -76q0 -49 -29 -83.5t-81 -53t-122 -18.5zM167 554v5l137 141h150l-127 -146h-160zM156 554l-127 146h150l137 -141v-5h-160z" />
    <glyph glyph-name="scedilla" unicode="&#x15f;" horiz-adv-x="491" 
d="M234 -12q-50 0 -93 14t-73.5 39.5t-42.5 61.5l143 56q11 -27 31 -34.5t35 -7.5q16 0 26 7t10 20q0 14 -14 23.5t-43 16.5l-41 10q-67 17 -101 59t-34 98q0 77 56.5 119t153.5 42q59 0 99.5 -14.5t66.5 -40.5t40 -60l-139 -53q-7 20 -23.5 29t-40.5 9q-17 0 -26.5 -8
t-9.5 -19q0 -12 14.5 -20.5t44.5 -16.5l41 -10q46 -11 80 -33.5t53 -55.5t19 -76q0 -49 -29 -83.5t-81 -53t-122 -18.5zM190 -209q-24 0 -49.5 8.5t-46.5 22.5l21 76q14 -7 26.5 -10.5t20.5 -3.5q17 0 27 5t10 14q0 14 -14.5 21.5t-40.5 7.5l30 75h97l-15 -32q34 -11 53 -33
t19 -49q0 -48 -36.5 -75t-101.5 -27z" />
    <glyph glyph-name="scircumflex" unicode="&#x15d;" horiz-adv-x="491" 
d="M234 -12q-50 0 -93 14t-73.5 39.5t-42.5 61.5l143 56q11 -27 31 -34.5t35 -7.5q16 0 26 7t10 20q0 14 -14 23.5t-43 16.5l-41 10q-67 17 -101 59t-34 98q0 77 56.5 119t153.5 42q59 0 99.5 -14.5t66.5 -40.5t40 -60l-139 -53q-7 20 -23.5 29t-40.5 9q-17 0 -26.5 -8
t-9.5 -19q0 -12 14.5 -20.5t44.5 -16.5l41 -10q46 -11 80 -33.5t53 -55.5t19 -76q0 -49 -29 -83.5t-81 -53t-122 -18.5zM304 565l-147 134v13h170l127 -147h-150zM29 565l127 147h170v-13l-147 -134h-150z" />
    <glyph glyph-name="uni0219" unicode="&#x219;" horiz-adv-x="491" 
d="M234 -12q-50 0 -93 14t-73.5 39.5t-42.5 61.5l143 56q11 -27 31 -34.5t35 -7.5q16 0 26 7t10 20q0 14 -14 23.5t-43 16.5l-41 10q-67 17 -101 59t-34 98q0 77 56.5 119t153.5 42q59 0 99.5 -14.5t66.5 -40.5t40 -60l-139 -53q-7 20 -23.5 29t-40.5 9q-17 0 -26.5 -8
t-9.5 -19q0 -12 14.5 -20.5t44.5 -16.5l41 -10q46 -11 80 -33.5t53 -55.5t19 -76q0 -49 -29 -83.5t-81 -53t-122 -18.5zM125 -199l46 160h168l-84 -160h-130z" />
    <glyph glyph-name="germandbls" unicode="&#xdf;" horiz-adv-x="609" 
d="M45 0v476q0 81 32.5 133.5t91.5 77.5t137 25q75 0 132 -22.5t89 -69.5t32 -121q0 -36 -16.5 -72.5t-47 -66.5t-72.5 -48t-93 -18h-36v141h12q22 0 38.5 8t25.5 23t9 36q0 29 -22 43.5t-53 14.5q-37 0 -58 -21t-21 -63v-476h-180zM294 0v163h36q33 0 52.5 18t19.5 40
q0 25 -20 40t-52 15h-36v133h11q98 0 159.5 -19.5t90.5 -64.5t29 -123q0 -65 -29.5 -110t-82 -68.5t-120.5 -23.5h-58z" />
    <glyph glyph-name="t" unicode="t" horiz-adv-x="425" 
d="M268 -12q-93 0 -138 44t-45 126v498h180v-449q0 -28 8 -40t27 -12q8 0 20 5t19 10l61 -130q-23 -20 -60 -36t-72 -16zM10 350v150h358v-150h-358z" />
    <glyph glyph-name="tcaron" unicode="&#x165;" horiz-adv-x="454" 
d="M290 581l23 119h150l-43 -119h-130zM268 -12q-93 0 -138 44t-45 126v498h180v-449q0 -28 8 -40t27 -12q8 0 20 5t19 10l61 -130q-23 -20 -60 -36t-72 -16zM10 350v150h358v-150h-358z" />
    <glyph glyph-name="uni021B" unicode="&#x21b;" horiz-adv-x="425" 
d="M268 -12q-93 0 -138 44t-45 126v498h180v-449q0 -28 8 -40t27 -12q8 0 20 5t19 10l61 -130q-23 -20 -60 -36t-72 -16zM10 350v150h358v-150h-358zM104 -200l46 160h168l-84 -160h-130z" />
    <glyph glyph-name="u" unicode="u" horiz-adv-x="578" 
d="M363 0l-10 92v408h180v-500h-170zM40 244v256h180v-256h-180zM220 244q0 -28 6.5 -47t19 -29t31.5 -11q38 -1 57 18t19 59h49q0 -79 -24 -134t-65 -83.5t-93 -28.5q-61 0 -101 24.5t-59.5 74.5t-19.5 127v30h180z" />
    <glyph glyph-name="uacute" unicode="&#xfa;" horiz-adv-x="578" 
d="M363 0l-10 92v408h180v-500h-170zM40 244v256h180v-256h-180zM220 244q0 -28 6.5 -47t19 -29t31.5 -11q38 -1 57 18t19 59h49q0 -79 -24 -134t-65 -83.5t-93 -28.5q-61 0 -101 24.5t-59.5 74.5t-19.5 127v30h180zM187 554l110 146h190l-130 -146h-170z" />
    <glyph glyph-name="ubreve" unicode="&#x16d;" horiz-adv-x="578" 
d="M363 0l-10 92v408h180v-500h-170zM40 244v256h180v-256h-180zM220 244q0 -28 6.5 -47t19 -29t31.5 -11q38 -1 57 18t19 59h49q0 -79 -24 -134t-65 -83.5t-93 -28.5q-61 0 -101 24.5t-59.5 74.5t-19.5 127v30h180zM287 542q-59 0 -105 20t-72 56t-26 82h164q0 -17 11 -28
t28 -11t27.5 11t10.5 28h164q0 -46 -26 -82t-71.5 -56t-104.5 -20z" />
    <glyph glyph-name="ucircumflex" unicode="&#xfb;" horiz-adv-x="578" 
d="M363 0l-10 92v408h180v-500h-170zM40 244v256h180v-256h-180zM220 244q0 -28 6.5 -47t19 -29t31.5 -11q38 -1 57 18t19 59h49q0 -79 -24 -134t-65 -83.5t-93 -28.5q-61 0 -101 24.5t-59.5 74.5t-19.5 127v30h180zM343 565l-147 134v13h170l127 -147h-150zM68 565l127 147
h170v-13l-147 -134h-150z" />
    <glyph glyph-name="udieresis" unicode="&#xfc;" horiz-adv-x="578" 
d="M363 0l-10 92v408h180v-500h-170zM40 244v256h180v-256h-180zM220 244q0 -28 6.5 -47t19 -29t31.5 -11q38 -1 57 18t19 59h49q0 -79 -24 -134t-65 -83.5t-93 -28.5q-61 0 -101 24.5t-59.5 74.5t-19.5 127v30h180zM421 569q-35 0 -61.5 26.5t-26.5 61.5t26.5 61.5
t61.5 26.5t61.5 -26.5t26.5 -61.5t-26.5 -61.5t-61.5 -26.5zM151 569q-36 0 -62 26t-26 62t26 62t62 26t62 -26t26 -62t-26 -62t-62 -26z" />
    <glyph glyph-name="ugrave" unicode="&#xf9;" horiz-adv-x="578" 
d="M363 0l-10 92v408h180v-500h-170zM40 244v256h180v-256h-180zM220 244q0 -28 6.5 -47t19 -29t31.5 -11q38 -1 57 18t19 59h49q0 -79 -24 -134t-65 -83.5t-93 -28.5q-61 0 -101 24.5t-59.5 74.5t-19.5 127v30h180zM228 554l-132 147h190l112 -147h-170z" />
    <glyph glyph-name="uhungarumlaut" unicode="&#x171;" horiz-adv-x="578" 
d="M363 0l-10 92v408h180v-500h-170zM40 244v256h180v-256h-180zM220 244q0 -28 6.5 -47t19 -29t31.5 -11q38 -1 57 18t19 59h49q0 -79 -24 -134t-65 -83.5t-93 -28.5q-61 0 -101 24.5t-59.5 74.5t-19.5 127v30h180zM330 554l100 146h170l-122 -146h-148zM100 554l96 146
h170l-120 -146h-146z" />
    <glyph glyph-name="umacron" unicode="&#x16b;" horiz-adv-x="578" 
d="M363 0l-10 92v408h180v-500h-170zM40 244v256h180v-256h-180zM220 244q0 -28 6.5 -47t19 -29t31.5 -11q38 -1 57 18t19 59h49q0 -79 -24 -134t-65 -83.5t-93 -28.5q-61 0 -101 24.5t-59.5 74.5t-19.5 127v30h180zM116 549v151h340v-151h-340z" />
    <glyph glyph-name="uogonek" unicode="&#x173;" horiz-adv-x="578" 
d="M363 0l-10 92v408h180v-500h-170zM40 244v256h180v-256h-180zM220 244q0 -28 6.5 -47t19 -29t31.5 -11q38 -1 57 18t19 59h49q0 -79 -24 -134t-65 -83.5t-93 -28.5q-61 0 -101 24.5t-59.5 74.5t-19.5 127v30h180zM494 -212q-42 0 -77.5 14t-57 41.5t-21.5 68.5
q0 29 17 52.5t40 35.5h138q-27 -17 -41.5 -37.5t-14.5 -37.5q0 -8 5 -14t13 -6t14 2t11 5l52 -108q-15 -9 -34 -12.5t-44 -3.5z" />
    <glyph glyph-name="uring" unicode="&#x16f;" horiz-adv-x="578" 
d="M363 0l-10 92v408h180v-500h-170zM40 244v256h180v-256h-180zM220 244q0 -28 6.5 -47t19 -29t31.5 -11q38 -1 57 18t19 59h49q0 -79 -24 -134t-65 -83.5t-93 -28.5q-61 0 -101 24.5t-59.5 74.5t-19.5 127v30h180zM286 520q-37 0 -68.5 17.5t-50.5 46.5t-19 65q0 37 19 66
t50.5 46.5t68.5 17.5t68 -17.5t50 -46.5t19 -66q0 -36 -19 -65t-50 -46.5t-68 -17.5zM286 616q32 0 32 33q0 34 -32 34q-33 0 -33 -34q0 -33 33 -33z" />
    <glyph glyph-name="v" unicode="v" horiz-adv-x="590" 
d="M223 0l176 500h186l-201 -500h-161zM206 0l-201 500h186l176 -500h-161z" />
    <glyph glyph-name="w" unicode="w" horiz-adv-x="883" 
d="M527 0l162 500h184l-171 -500h-175zM201 0l152 500h151l-148 -500h-155zM180 0l-170 500h184l151 -500h-165zM526 0l-147 500h151l151 -500h-155z" />
    <glyph glyph-name="wacute" unicode="&#x1e83;" horiz-adv-x="883" 
d="M527 0l162 500h184l-171 -500h-175zM201 0l152 500h151l-148 -500h-155zM180 0l-170 500h184l151 -500h-165zM526 0l-147 500h151l151 -500h-155zM343 554l110 146h190l-130 -146h-170z" />
    <glyph glyph-name="wcircumflex" unicode="&#x175;" horiz-adv-x="883" 
d="M527 0l162 500h184l-171 -500h-175zM201 0l152 500h151l-148 -500h-155zM180 0l-170 500h184l151 -500h-165zM526 0l-147 500h151l151 -500h-155zM499 565l-147 134v13h170l127 -147h-150zM224 565l127 147h170v-13l-147 -134h-150z" />
    <glyph glyph-name="wdieresis" unicode="&#x1e85;" horiz-adv-x="883" 
d="M527 0l162 500h184l-171 -500h-175zM201 0l152 500h151l-148 -500h-155zM180 0l-170 500h184l151 -500h-165zM526 0l-147 500h151l151 -500h-155zM577 569q-35 0 -61.5 26.5t-26.5 61.5t26.5 61.5t61.5 26.5t61.5 -26.5t26.5 -61.5t-26.5 -61.5t-61.5 -26.5zM307 569
q-36 0 -62 26t-26 62t26 62t62 26t62 -26t26 -62t-26 -62t-62 -26z" />
    <glyph glyph-name="wgrave" unicode="&#x1e81;" horiz-adv-x="883" 
d="M527 0l162 500h184l-171 -500h-175zM201 0l152 500h151l-148 -500h-155zM180 0l-170 500h184l151 -500h-165zM526 0l-147 500h151l151 -500h-155zM384 554l-132 147h190l112 -147h-170z" />
    <glyph glyph-name="x" unicode="x" horiz-adv-x="592" 
d="M10 0l206 284l142 216h212l-207 -287l-139 -213h-214zM369 0l-137 213l-209 287h212l142 -216l205 -284h-213z" />
    <glyph glyph-name="y" unicode="y" horiz-adv-x="622" 
d="M196 -212q-35 0 -74 13.5t-62 28.5l67 145q11 -9 23.5 -14.5t23.5 -5.5q16 0 30.5 8t22.5 27l60 140l135 370h200l-215 -518q-23 -56 -48 -100t-62.5 -69t-100.5 -25zM240 0l-240 500h200l149 -370l61 -130h-170z" />
    <glyph glyph-name="yacute" unicode="&#xfd;" horiz-adv-x="622" 
d="M196 -212q-35 0 -74 13.5t-62 28.5l67 145q11 -9 23.5 -14.5t23.5 -5.5q16 0 30.5 8t22.5 27l60 140l135 370h200l-215 -518q-23 -56 -48 -100t-62.5 -69t-100.5 -25zM240 0l-240 500h200l149 -370l61 -130h-170zM212 554l110 146h190l-130 -146h-170z" />
    <glyph glyph-name="ycircumflex" unicode="&#x177;" horiz-adv-x="622" 
d="M196 -212q-35 0 -74 13.5t-62 28.5l67 145q11 -9 23.5 -14.5t23.5 -5.5q16 0 30.5 8t22.5 27l60 140l135 370h200l-215 -518q-23 -56 -48 -100t-62.5 -69t-100.5 -25zM240 0l-240 500h200l149 -370l61 -130h-170zM368 565l-147 134v13h170l127 -147h-150zM93 565l127 147
h170v-13l-147 -134h-150z" />
    <glyph glyph-name="ydieresis" unicode="&#xff;" horiz-adv-x="622" 
d="M196 -212q-35 0 -74 13.5t-62 28.5l67 145q11 -9 23.5 -14.5t23.5 -5.5q16 0 30.5 8t22.5 27l60 140l135 370h200l-215 -518q-23 -56 -48 -100t-62.5 -69t-100.5 -25zM240 0l-240 500h200l149 -370l61 -130h-170zM446 569q-35 0 -61.5 26.5t-26.5 61.5t26.5 61.5
t61.5 26.5t61.5 -26.5t26.5 -61.5t-26.5 -61.5t-61.5 -26.5zM176 569q-36 0 -62 26t-26 62t26 62t62 26t62 -26t26 -62t-26 -62t-62 -26z" />
    <glyph glyph-name="ygrave" unicode="&#x1ef3;" horiz-adv-x="622" 
d="M196 -212q-35 0 -74 13.5t-62 28.5l67 145q11 -9 23.5 -14.5t23.5 -5.5q16 0 30.5 8t22.5 27l60 140l135 370h200l-215 -518q-23 -56 -48 -100t-62.5 -69t-100.5 -25zM240 0l-240 500h200l149 -370l61 -130h-170zM253 554l-132 147h190l112 -147h-170z" />
    <glyph glyph-name="z" unicode="z" horiz-adv-x="464" 
d="M20 0v125l202 230h-202v145h424v-125l-202 -231h202v-144h-424z" />
    <glyph glyph-name="zacute" unicode="&#x17a;" horiz-adv-x="464" 
d="M20 0v125l202 230h-202v145h424v-125l-202 -231h202v-144h-424zM133 554l110 146h190l-130 -146h-170z" />
    <glyph glyph-name="zcaron" unicode="&#x17e;" horiz-adv-x="464" 
d="M20 0v125l202 230h-202v145h424v-125l-202 -231h202v-144h-424zM152 554v5l137 141h150l-127 -146h-160zM141 554l-127 146h150l137 -141v-5h-160z" />
    <glyph glyph-name="zdotaccent" unicode="&#x17c;" horiz-adv-x="464" 
d="M20 0v125l202 230h-202v145h424v-125l-202 -231h202v-144h-424zM232 548q-40 0 -70 30t-30 70q0 41 30 70.5t70 29.5q41 0 70.5 -29.5t29.5 -70.5q0 -40 -29.5 -70t-70.5 -30z" />
    <glyph glyph-name="a.ss01" horiz-adv-x="604" 
d="M388 0l-9 93v407h180v-500h-171zM246 -12q-71 0 -121.5 31t-77.5 90t-27 141q0 83 27 141.5t77.5 89.5t121.5 31q62 0 102.5 -31t60 -89.5t19.5 -141.5q0 -82 -19.5 -141t-60 -90t-102.5 -31zM294 154q25 0 44.5 12.5t30.5 34t11 49.5t-11 49.5t-30.5 33.5t-45.5 12
q-24 0 -43 -12t-30 -33.5t-12 -49.5q1 -28 12 -49.5t30.5 -34t43.5 -12.5z" />
    <glyph glyph-name="aacute.ss01" horiz-adv-x="604" 
d="M388 0l-9 93v407h180v-500h-171zM246 -12q-71 0 -121.5 31t-77.5 90t-27 141q0 83 27 141.5t77.5 89.5t121.5 31q62 0 102.5 -31t60 -89.5t19.5 -141.5q0 -82 -19.5 -141t-60 -90t-102.5 -31zM294 154q25 0 44.5 12.5t30.5 34t11 49.5t-11 49.5t-30.5 33.5t-45.5 12
q-24 0 -43 -12t-30 -33.5t-12 -49.5q1 -28 12 -49.5t30.5 -34t43.5 -12.5zM189 554l110 146h190l-130 -146h-170z" />
    <glyph glyph-name="abreve.ss01" horiz-adv-x="604" 
d="M388 0l-9 93v407h180v-500h-171zM246 -12q-71 0 -121.5 31t-77.5 90t-27 141q0 83 27 141.5t77.5 89.5t121.5 31q62 0 102.5 -31t60 -89.5t19.5 -141.5q0 -82 -19.5 -141t-60 -90t-102.5 -31zM294 154q25 0 44.5 12.5t30.5 34t11 49.5t-11 49.5t-30.5 33.5t-45.5 12
q-24 0 -43 -12t-30 -33.5t-12 -49.5q1 -28 12 -49.5t30.5 -34t43.5 -12.5zM289 542q-59 0 -105 20t-72 56t-26 82h164q0 -17 11 -28t28 -11t27.5 11t10.5 28h164q0 -46 -26 -82t-71.5 -56t-104.5 -20z" />
    <glyph glyph-name="uni01CE.ss01" horiz-adv-x="604" 
d="M388 0l-9 93v407h180v-500h-171zM246 -12q-71 0 -121.5 31t-77.5 90t-27 141q0 83 27 141.5t77.5 89.5t121.5 31q62 0 102.5 -31t60 -89.5t19.5 -141.5q0 -82 -19.5 -141t-60 -90t-102.5 -31zM294 154q25 0 44.5 12.5t30.5 34t11 49.5t-11 49.5t-30.5 33.5t-45.5 12
q-24 0 -43 -12t-30 -33.5t-12 -49.5q1 -28 12 -49.5t30.5 -34t43.5 -12.5zM208 554v5l137 141h150l-127 -146h-160zM197 554l-127 146h150l137 -141v-5h-160z" />
    <glyph glyph-name="acircumflex.ss01" horiz-adv-x="604" 
d="M388 0l-9 93v407h180v-500h-171zM246 -12q-71 0 -121.5 31t-77.5 90t-27 141q0 83 27 141.5t77.5 89.5t121.5 31q62 0 102.5 -31t60 -89.5t19.5 -141.5q0 -82 -19.5 -141t-60 -90t-102.5 -31zM294 154q25 0 44.5 12.5t30.5 34t11 49.5t-11 49.5t-30.5 33.5t-45.5 12
q-24 0 -43 -12t-30 -33.5t-12 -49.5q1 -28 12 -49.5t30.5 -34t43.5 -12.5zM345 565l-147 134v13h170l127 -147h-150zM70 565l127 147h170v-13l-147 -134h-150z" />
    <glyph glyph-name="adieresis.ss01" horiz-adv-x="604" 
d="M388 0l-9 93v407h180v-500h-171zM246 -12q-71 0 -121.5 31t-77.5 90t-27 141q0 83 27 141.5t77.5 89.5t121.5 31q62 0 102.5 -31t60 -89.5t19.5 -141.5q0 -82 -19.5 -141t-60 -90t-102.5 -31zM294 154q25 0 44.5 12.5t30.5 34t11 49.5t-11 49.5t-30.5 33.5t-45.5 12
q-24 0 -43 -12t-30 -33.5t-12 -49.5q1 -28 12 -49.5t30.5 -34t43.5 -12.5zM423 569q-35 0 -61.5 26.5t-26.5 61.5t26.5 61.5t61.5 26.5t61.5 -26.5t26.5 -61.5t-26.5 -61.5t-61.5 -26.5zM153 569q-36 0 -62 26t-26 62t26 62t62 26t62 -26t26 -62t-26 -62t-62 -26z" />
    <glyph glyph-name="agrave.ss01" horiz-adv-x="604" 
d="M388 0l-9 93v407h180v-500h-171zM246 -12q-71 0 -121.5 31t-77.5 90t-27 141q0 83 27 141.5t77.5 89.5t121.5 31q62 0 102.5 -31t60 -89.5t19.5 -141.5q0 -82 -19.5 -141t-60 -90t-102.5 -31zM294 154q25 0 44.5 12.5t30.5 34t11 49.5t-11 49.5t-30.5 33.5t-45.5 12
q-24 0 -43 -12t-30 -33.5t-12 -49.5q1 -28 12 -49.5t30.5 -34t43.5 -12.5zM230 554l-132 147h190l112 -147h-170z" />
    <glyph glyph-name="amacron.ss01" horiz-adv-x="604" 
d="M388 0l-9 93v407h180v-500h-171zM246 -12q-71 0 -121.5 31t-77.5 90t-27 141q0 83 27 141.5t77.5 89.5t121.5 31q62 0 102.5 -31t60 -89.5t19.5 -141.5q0 -82 -19.5 -141t-60 -90t-102.5 -31zM294 154q25 0 44.5 12.5t30.5 34t11 49.5t-11 49.5t-30.5 33.5t-45.5 12
q-24 0 -43 -12t-30 -33.5t-12 -49.5q1 -28 12 -49.5t30.5 -34t43.5 -12.5zM118 549v151h340v-151h-340z" />
    <glyph glyph-name="aogonek.ss01" horiz-adv-x="604" 
d="M388 0l-9 93v407h180v-500h-171zM246 -12q-71 0 -121.5 31t-77.5 90t-27 141q0 83 27 141.5t77.5 89.5t121.5 31q62 0 102.5 -31t60 -89.5t19.5 -141.5q0 -82 -19.5 -141t-60 -90t-102.5 -31zM294 154q25 0 44.5 12.5t30.5 34t11 49.5t-11 49.5t-30.5 33.5t-45.5 12
q-24 0 -43 -12t-30 -33.5t-12 -49.5q1 -28 12 -49.5t30.5 -34t43.5 -12.5zM520 -212q-42 0 -77.5 14t-57 41.5t-21.5 68.5q0 29 17 52.5t40 35.5h138q-27 -17 -41.5 -37.5t-14.5 -37.5q0 -8 5 -14t13 -6t14 2t11 5l52 -108q-15 -9 -34 -12.5t-44 -3.5z" />
    <glyph glyph-name="aring.ss01" horiz-adv-x="604" 
d="M388 0l-9 93v407h180v-500h-171zM246 -12q-71 0 -121.5 31t-77.5 90t-27 141q0 83 27 141.5t77.5 89.5t121.5 31q62 0 102.5 -31t60 -89.5t19.5 -141.5q0 -82 -19.5 -141t-60 -90t-102.5 -31zM294 154q25 0 44.5 12.5t30.5 34t11 49.5t-11 49.5t-30.5 33.5t-45.5 12
q-24 0 -43 -12t-30 -33.5t-12 -49.5q1 -28 12 -49.5t30.5 -34t43.5 -12.5zM288 520q-37 0 -68.5 17.5t-50.5 46.5t-19 65q0 37 19 66t50.5 46.5t68.5 17.5t68 -17.5t50 -46.5t19 -66q0 -36 -19 -65t-50 -46.5t-68 -17.5zM288 616q32 0 32 33q0 34 -32 34q-33 0 -33 -34
q0 -33 33 -33z" />
    <glyph glyph-name="atilde.ss01" horiz-adv-x="604" 
d="M388 0l-9 93v407h180v-500h-171zM246 -12q-71 0 -121.5 31t-77.5 90t-27 141q0 83 27 141.5t77.5 89.5t121.5 31q62 0 102.5 -31t60 -89.5t19.5 -141.5q0 -82 -19.5 -141t-60 -90t-102.5 -31zM294 154q25 0 44.5 12.5t30.5 34t11 49.5t-11 49.5t-30.5 33.5t-45.5 12
q-24 0 -43 -12t-30 -33.5t-12 -49.5q1 -28 12 -49.5t30.5 -34t43.5 -12.5zM369 534q-38 0 -58.5 11t-31.5 25t-21 25t-27 11q-7 0 -16 -6.5t-15 -32.5h-111q6 53 22.5 85t45 46t68.5 14q41 0 63.5 -11t34.5 -25t21 -25t24 -11q14 0 19 11.5t7 27.5h111q-9 -70 -40.5 -107.5
t-95.5 -37.5z" />
    <glyph glyph-name="l.ss02" horiz-adv-x="335" 
d="M219 -12q-88 0 -131 44t-43 126v542h180v-493q0 -25 6.5 -36t21.5 -11q5 0 13.5 3.5t12.5 6.5l61 -130q-21 -20 -55 -36t-66 -16z" />
    <glyph glyph-name="lacute.ss02" horiz-adv-x="335" 
d="M219 -12q-88 0 -131 44t-43 126v542h180v-493q0 -25 6.5 -36t21.5 -11q5 0 13.5 3.5t12.5 6.5l61 -130q-21 -20 -55 -36t-66 -16zM36 754l110 146h190l-130 -146h-170z" />
    <glyph glyph-name="lcaron.ss02" horiz-adv-x="335" 
d="M219 -12q-88 0 -131 44t-43 126v542h180v-493q0 -25 6.5 -36t21.5 -11q5 0 13.5 3.5t12.5 6.5l61 -130q-21 -20 -55 -36t-66 -16zM242 552l23 148h150l-43 -148h-130z" />
    <glyph glyph-name="uni013C.ss02" horiz-adv-x="335" 
d="M219 -12q-88 0 -131 44t-43 126v542h180v-493q0 -25 6.5 -36t21.5 -11q5 0 13.5 3.5t12.5 6.5l61 -130q-21 -20 -55 -36t-66 -16zM16 -200l46 160h168l-84 -160h-130z" />
    <glyph glyph-name="lslash.ss02" horiz-adv-x="350" 
d="M0 204v138l290 154v-138zM229 -12q-88 0 -131 44t-43 126v542h180v-493q0 -25 6.5 -36t21.5 -11q5 0 13.5 3.5t12.5 6.5l61 -130q-21 -20 -55 -36t-66 -16z" />
    <glyph glyph-name="ordfeminine" unicode="&#xaa;" horiz-adv-x="343" 
d="M201 400l-2 145q0 18 -1.5 33.5t-10.5 24.5t-33 9q-10 0 -17 -4.5t-17 -15.5l-106 32q22 38 56.5 60.5t86.5 22.5q74 0 116 -38.5t42 -98.5v-170h-114zM124 393q-52 0 -81 23.5t-29 68.5q0 47 29.5 69t80.5 22h84v-66h-36q-38 0 -38 -23q0 -5 5.5 -8t15.5 -3
q18 0 29 10.5t11 28.5l31 13q0 -65 -27 -100t-75 -35z" />
    <glyph glyph-name="ordmasculine" unicode="&#xba;" horiz-adv-x="359" 
d="M181 393q-49 0 -86.5 20t-59 55.5t-21.5 81.5t21 81.5t58.5 55.5t85.5 20q74 0 120 -44t46 -113q0 -46 -21 -81.5t-58 -55.5t-85 -20zM181 504q17 0 29 13t12 33t-12 33.5t-31 13.5q-18 0 -29.5 -13.5t-11.5 -33.5t12 -33t31 -13z" />
    <glyph glyph-name="zero" unicode="0" horiz-adv-x="655" 
d="M327 -12q-88 0 -156.5 46.5t-107 128t-38.5 187.5t38.5 187.5t106 128t155.5 46.5q90 0 158.5 -46.5t107.5 -128t39 -187.5t-39 -187.5t-107 -128t-157 -46.5zM327 156q36 0 63.5 25t43.5 68.5t16 100.5q0 58 -16 102t-44 69t-65 25q-35 0 -62 -25t-42.5 -69t-15.5 -102
q0 -57 15.5 -100.5t43.5 -68.5t63 -25z" />
    <glyph glyph-name="one" unicode="1" horiz-adv-x="430" 
d="M175 0v601l19 99h156v-700h-175zM35 441v168q29 -3 57.5 11t55 37t46.5 45l118 -111q-39 -45 -82.5 -81.5t-91.5 -55.5t-103 -13z" />
    <glyph glyph-name="two" unicode="2" horiz-adv-x="597" 
d="M45 0v130q0 26 22 62.5t60.5 75t86.5 69.5l70 45q18 12 38 27.5t34 34.5t14 38q0 18 -8.5 32t-26 21.5t-46.5 7.5q-20 0 -36 -9t-26.5 -24t-15.5 -33l-191 31q9 54 43.5 101t92 75.5t133.5 28.5q85 0 145.5 -29t93 -80.5t32.5 -119.5q0 -75 -41.5 -126.5t-106.5 -93.5
l-57 -37q-19 -12 -39 -28t-38 -37h289v-162h-522z" />
    <glyph glyph-name="three" unicode="3" horiz-adv-x="567" 
d="M292 -12q-71 0 -129.5 21.5t-96 64.5t-46.5 107l178 36q4 -11 11.5 -28t24 -29.5t46.5 -12.5q34 0 52.5 17.5t18.5 47.5q0 15 -6 30.5t-27.5 25.5t-67.5 10h-62v117h55q57 0 109.5 -15t94 -43t66 -66t24.5 -85q0 -64 -35.5 -108.5t-91.5 -67t-118 -22.5zM188 320v107h62
q56 0 74 18t18 49q0 18 -8 31t-22 20.5t-32 7.5q-13 0 -29.5 -5.5t-30 -20.5t-18.5 -46l-177 36q9 65 48.5 108.5t96 65t114.5 21.5q68 0 123 -24.5t87.5 -69t32.5 -104.5q0 -51 -25.5 -87.5t-67 -60.5t-91.5 -35t-100 -11h-55z" />
    <glyph glyph-name="four" unicode="4" horiz-adv-x="645" 
d="M338 0v108h-328v149l302 443h200v-435h103v-157h-103v-108h-174zM192 265h146v214z" />
    <glyph glyph-name="five" unicode="5" horiz-adv-x="587" 
d="M296 -12q-55 0 -111 19.5t-98.5 56.5t-56.5 89l179 36q8 -21 29 -31t45 -10q36 0 58.5 21.5t22.5 58.5q0 32 -22 56t-60 24q-25 0 -42 -12t-25 -27l-166 36l50 395h416v-168h-261l-20 -118q26 14 58.5 22.5t72.5 7.5q51 -1 95 -27.5t70.5 -72t26.5 -105.5
q0 -74 -33.5 -131t-92 -88.5t-135.5 -31.5z" />
    <glyph glyph-name="six" unicode="6" horiz-adv-x="593" 
d="M299 -12q-69 0 -119.5 24t-83.5 67t-49.5 100.5t-16.5 125.5q0 72 15 144t49 131.5t92.5 95.5t145.5 36q59 0 112.5 -16t96.5 -46l-87 -136q-31 20 -65 28.5t-59 8.5q-55 0 -91 -52t-36 -172l-37 19q23 50 66.5 80.5t104.5 30.5q66 0 117 -33t80 -88t29 -122
q0 -64 -32 -115.5t-91 -81t-141 -29.5zM300 142q22 0 40 11t28.5 29.5t10.5 41.5q0 24 -10.5 43.5t-28.5 31t-40 11.5t-40.5 -11.5t-29.5 -31t-11 -43.5q0 -23 11 -41.5t29.5 -29.5t40.5 -11z" />
    <glyph glyph-name="seven" unicode="7" horiz-adv-x="573" 
d="M104 0l233 530l206 40l-234 -570h-205zM25 530v170h518v-130l-206 -40h-312z" />
    <glyph glyph-name="eight" unicode="8" horiz-adv-x="610" 
d="M304 -12q-92 0 -153 24.5t-91 68t-30 101.5q0 64 30 112t91 75.5t153 26.5q93 1 154 -26.5t91.5 -75.5t30.5 -112q0 -58 -30.5 -101.5t-91.5 -68t-154 -24.5zM304 140q38 0 62 19.5t24 49.5q0 36 -24 58.5t-62 22.5q-24 0 -43 -10t-30 -28.5t-11 -42.5q0 -20 11 -35.5
t30 -24.5t43 -9zM304 337q-83 0 -139.5 23.5t-85.5 65t-29 96.5q0 56 29 99t85.5 67t139.5 24t140 -24t86.5 -67t29.5 -99q0 -55 -29.5 -96.5t-86.5 -65t-140 -23.5zM304 427q33 0 54.5 20.5t21.5 51.5q0 30 -21.5 49t-54.5 19t-53.5 -19t-20.5 -49q0 -31 20.5 -51.5
t53.5 -20.5z" />
    <glyph glyph-name="nine" unicode="9" horiz-adv-x="593" 
d="M294 711q69 0 119.5 -24t83.5 -67t49.5 -100.5t16.5 -125.5q0 -72 -15 -144t-49 -131.5t-92.5 -95.5t-145.5 -36q-58 0 -111.5 16t-97.5 46l87 136q31 -20 65 -28.5t59 -8.5q55 0 91 52t36 172l37 -19q-23 -49 -66.5 -80t-104.5 -31q-66 0 -117 33t-80 88t-29 122
q0 65 32 116t91.5 80.5t140.5 29.5zM293 557q-22 0 -40 -11t-28.5 -29.5t-10.5 -41.5t10.5 -43t28.5 -31.5t40 -11.5q23 0 41 11.5t29 31.5t11 43t-11 41.5t-29 29.5t-41 11z" />
    <glyph glyph-name="zero.ss02" horiz-adv-x="655" 
d="M327 -12q-88 0 -156.5 46.5t-107 128t-38.5 187.5t38.5 187.5t106 128t155.5 46.5q90 0 158.5 -46.5t107.5 -128t39 -187.5t-39 -187.5t-107 -128t-157 -46.5zM327 156q36 0 63.5 25t43.5 68.5t16 100.5q0 58 -16 102t-44 69t-65 25q-35 0 -62 -25t-42.5 -69t-15.5 -102
q0 -57 15.5 -100.5t43.5 -68.5t63 -25zM82 154l336 392h152l-337 -392h-151z" />
    <glyph glyph-name="zero.tf" 
d="M319 -12q-88 0 -156.5 46.5t-107 128t-38.5 187.5t38.5 187.5t106 128t155.5 46.5q90 0 158.5 -46.5t107.5 -128t39 -187.5t-39 -187.5t-107 -128t-157 -46.5zM319 156q36 0 63.5 25t43.5 68.5t16 100.5q0 58 -16 102t-44 69t-65 25q-35 0 -62 -25t-42.5 -69t-15.5 -102
q0 -57 15.5 -100.5t43.5 -68.5t63 -25z" />
    <glyph glyph-name="one.tf" 
d="M131 0v162h455v-162h-455zM271 0v601l19 99h156v-700h-175zM131 441v168q29 -3 57.5 11t55 37t46.5 45l118 -111q-39 -45 -82.5 -81.5t-91.5 -55.5t-103 -13z" />
    <glyph glyph-name="two.tf" 
d="M71 0v130q0 26 22 62.5t60.5 75t86.5 69.5l70 45q18 12 38 27.5t34 34.5t14 38q0 18 -8.5 32t-26 21.5t-46.5 7.5q-20 0 -36 -9t-26.5 -24t-15.5 -33l-191 31q9 54 43.5 101t92 75.5t133.5 28.5q85 0 145.5 -29t93 -80.5t32.5 -119.5q0 -75 -41.5 -126.5t-106.5 -93.5
l-57 -37q-19 -12 -39 -28t-38 -37h289v-162h-522z" />
    <glyph glyph-name="three.tf" 
d="M328 -12q-71 0 -129.5 21.5t-96 64.5t-46.5 107l178 36q4 -11 11.5 -28t24 -29.5t46.5 -12.5q34 0 52.5 17.5t18.5 47.5q0 15 -6 30.5t-27.5 25.5t-67.5 10h-62v117h55q57 0 109.5 -15t94 -43t66 -66t24.5 -85q0 -64 -35.5 -108.5t-91.5 -67t-118 -22.5zM224 320v107h62
q56 0 74 18t18 49q0 18 -8 31t-22 20.5t-32 7.5q-13 0 -29.5 -5.5t-30 -20.5t-18.5 -46l-177 36q9 65 48.5 108.5t96 65t114.5 21.5q68 0 123 -24.5t87.5 -69t32.5 -104.5q0 -51 -25.5 -87.5t-67 -60.5t-91.5 -35t-100 -11h-55z" />
    <glyph glyph-name="four.tf" 
d="M142 191l-130 66l297 443l104 -103zM12 108v149l96 8h499v-157h-595zM334 0v605l-24 95h196v-700h-172z" />
    <glyph glyph-name="five.tf" 
d="M322 -12q-55 0 -111 19.5t-98.5 56.5t-56.5 89l179 36q8 -21 29 -31t45 -10q36 0 58.5 21.5t22.5 58.5q0 32 -22 56t-60 24q-25 0 -42 -12t-25 -27l-166 36l50 395h416v-168h-261l-20 -118q26 14 58.5 22.5t72.5 7.5q51 -1 95 -27.5t70.5 -72t26.5 -105.5
q0 -74 -33.5 -131t-92 -88.5t-135.5 -31.5z" />
    <glyph glyph-name="six.tf" 
d="M322 -12q-69 0 -119.5 24t-83.5 67t-49.5 100.5t-16.5 125.5q0 72 15 144t49 131.5t92.5 95.5t145.5 36q59 0 112.5 -16t96.5 -46l-87 -136q-31 20 -65 28.5t-59 8.5q-55 0 -91 -52t-36 -172l-37 19q23 50 66.5 80.5t104.5 30.5q66 0 117 -33t80 -88t29 -122
q0 -64 -32 -115.5t-91 -81t-141 -29.5zM323 142q22 0 40 11t28.5 29.5t10.5 41.5q0 24 -10.5 43.5t-28.5 31t-40 11.5t-40.5 -11.5t-29.5 -31t-11 -43.5q0 -23 11 -41.5t29.5 -29.5t40.5 -11z" />
    <glyph glyph-name="seven.tf" 
d="M138 0l233 530l206 40l-234 -570h-205zM59 530v170h518v-130l-206 -40h-312z" />
    <glyph glyph-name="eight.tf" 
d="M319 -12q-92 0 -153 24.5t-91 68t-30 101.5q0 64 30 112t91 75.5t153 26.5q93 1 154 -26.5t91.5 -75.5t30.5 -112q0 -58 -30.5 -101.5t-91.5 -68t-154 -24.5zM319 140q38 0 62 19.5t24 49.5q0 36 -24 58.5t-62 22.5q-24 0 -43 -10t-30 -28.5t-11 -42.5q0 -20 11 -35.5
t30 -24.5t43 -9zM319 337q-83 0 -139.5 23.5t-85.5 65t-29 96.5q0 56 29 99t85.5 67t139.5 24t140 -24t86.5 -67t29.5 -99q0 -55 -29.5 -96.5t-86.5 -65t-140 -23.5zM319 427q33 0 54.5 20.5t21.5 51.5q0 30 -21.5 49t-54.5 19t-53.5 -19t-20.5 -49q0 -31 20.5 -51.5
t53.5 -20.5z" />
    <glyph glyph-name="nine.tf" 
d="M318 711q69 0 119.5 -24t83.5 -67t49.5 -100.5t16.5 -125.5q0 -72 -15 -144t-49 -131.5t-92.5 -95.5t-145.5 -36q-58 0 -111.5 16t-97.5 46l87 136q31 -20 65 -28.5t59 -8.5q55 0 91 52t36 172l37 -19q-23 -49 -66.5 -80t-104.5 -31q-66 0 -117 33t-80 88t-29 122
q0 65 32 116t91.5 80.5t140.5 29.5zM317 557q-22 0 -40 -11t-28.5 -29.5t-10.5 -41.5t10.5 -43t28.5 -31.5t40 -11.5q23 0 41 11.5t29 31.5t11 43t-11 41.5t-29 29.5t-41 11z" />
    <glyph glyph-name="zero.tf.ss02" 
d="M82 154l336 392h152l-337 -392h-151zM319 -12q-88 0 -156.5 46.5t-107 128t-38.5 187.5t38.5 187.5t106 128t155.5 46.5q90 0 158.5 -46.5t107.5 -128t39 -187.5t-39 -187.5t-107 -128t-157 -46.5zM319 156q36 0 63.5 25t43.5 68.5t16 100.5q0 58 -16 102t-44 69t-65 25
q-35 0 -62 -25t-42.5 -69t-15.5 -102q0 -57 15.5 -100.5t43.5 -68.5t63 -25z" />
    <glyph glyph-name="zero.dnom" horiz-adv-x="406" 
d="M204 -6q-55 0 -96.5 27.5t-65.5 76.5t-24 113q0 65 23.5 113.5t65.5 76t96 27.5q55 0 96 -27.5t65 -76t24 -113.5q0 -64 -23.5 -113t-65 -76.5t-95.5 -27.5zM203 106q29 0 47 29.5t18 75.5q0 47 -18.5 77t-47.5 30q-25 0 -41.5 -30t-16.5 -77q0 -46 16.5 -75.5
t42.5 -29.5z" />
    <glyph glyph-name="one.dnom" horiz-adv-x="279" 
d="M107 0v354l13 66h103v-420h-116zM25 255v112q25 -3 49 14t46 40l79 -73q-43 -51 -85 -74.5t-89 -18.5z" />
    <glyph glyph-name="two.dnom" horiz-adv-x="372" 
d="M150 65l-121 20q0 15 14.5 37t39 46t54.5 43l32 20q16 10 34 24.5t18 30.5q0 13 -9.5 21t-32.5 8q-13 0 -23.5 -9.5t-14.5 -24.5l-127 20q5 34 26.5 62.5t57 46.5t82.5 18q79 0 123 -39t44 -102q0 -49 -26.5 -79t-65.5 -55l-35 -22q-13 -8 -28 -21.5t-27 -26t-15 -18.5z
M29 0v85l91 23h231v-108h-322z" />
    <glyph glyph-name="three.dnom" horiz-adv-x="355" 
d="M185 -6q-67 0 -115.5 31t-55.5 95l120 21q2 -10 9.5 -26t33.5 -16q15 0 24 8t9 23q0 5 -1.5 12.5t-11 13t-35.5 5.5h-43v76h38q44 0 84.5 -16t66.5 -44t26 -65q0 -39 -22 -65t-56 -39.5t-71 -13.5zM119 190v69h43q29 0 36.5 9.5t7.5 25.5q0 13 -8.5 21t-20.5 8
q-13 0 -26 -9t-15 -35l-119 21q4 43 29 71.5t61 42.5t72 14q41 0 75 -15t54.5 -41.5t20.5 -63.5q0 -42 -27 -68t-67 -38t-78 -12h-38z" />
    <glyph glyph-name="four.dnom" horiz-adv-x="398" 
d="M95 114l-88 43l179 263l70 -68zM7 57v100l64 4h306v-104h-370zM204 0v358l-17 62h133v-420h-116z" />
    <glyph glyph-name="five.dnom" horiz-adv-x="365" 
d="M185 -7q-34 0 -69.5 12.5t-61.5 36t-33 55.5l121 22q2 -10 11.5 -15t22.5 -5q17 0 28 10.5t11 28.5q0 15 -10.5 27.5t-29.5 12.5q-12 0 -20 -5.5t-13 -16.5l-111 24l32 240h255v-112h-232l-23 108h122l-46 -251l-50 15q4 11 20 32.5t46.5 39t77.5 15.5q44 -1 77.5 -34.5
t33.5 -86.5q0 -68 -44.5 -110.5t-114.5 -42.5z" />
    <glyph glyph-name="six.dnom" horiz-adv-x="367" 
d="M184 -7q-54 0 -90.5 24.5t-54.5 66.5t-18 96q0 41 8.5 84.5t29 80.5t56.5 59.5t91 22.5q36 0 68.5 -9.5t58.5 -27.5l-57 -91q-18 12 -38 16.5t-34 4.5q-27 0 -47 -27t-20 -92l-25 11q14 29 39.5 46.5t59.5 17.5q40 0 70 -20.5t47.5 -53.5t17.5 -73q0 -58 -43 -97
t-119 -39zM185 95q16 0 27.5 12.5t11.5 28.5q0 17 -11.5 30t-27.5 13t-28 -13t-12 -30t12 -29t28 -12z" />
    <glyph glyph-name="seven.dnom" horiz-adv-x="356" 
d="M70 0l126 307l139 28l-128 -335h-137zM18 307v113h317v-85l-139 -28h-178z" />
    <glyph glyph-name="eight.dnom" horiz-adv-x="378" 
d="M189 -7q-86 0 -127 32t-41 84q0 58 40.5 94t126.5 36t127.5 -36t41.5 -94q0 -52 -41.5 -84t-126.5 -32zM188 93q18 0 30 10t12 25q0 19 -12 30.5t-29 11.5q-18 0 -29.5 -11.5t-11.5 -30.5q0 -15 11.5 -25t28.5 -10zM188 260q17 0 27.5 11t10.5 27q0 14 -10.5 24t-27.5 10
q-16 0 -26 -10t-10 -24q0 -16 10 -27t26 -11zM188 202q-77 0 -116.5 31t-39.5 80q0 50 39.5 82t117.5 32q77 0 116.5 -32t39.5 -82q0 -49 -40 -80t-117 -31z" />
    <glyph glyph-name="nine.dnom" horiz-adv-x="367" 
d="M161 -8q-35 0 -68 9.5t-59 27.5l57 91q18 -12 39 -16.5t33 -4.5q26 0 46 25.5t21 94.5l25 -12q-13 -26 -37.5 -45t-61.5 -19q-40 0 -70 20.5t-47.5 54t-17.5 73.5q0 57 43 96.5t119 39.5q54 0 90.5 -24.5t54.5 -67t18 -96.5q0 -41 -8.5 -84t-29 -80t-56.5 -60t-91 -23z
M182 240q16 0 28 13.5t12 30.5t-12 29t-28 12t-27.5 -12t-11.5 -29t11.5 -30.5t27.5 -13.5z" />
    <glyph glyph-name="zero.numr" horiz-adv-x="406" 
d="M204 273q-55 0 -96.5 27.5t-65.5 76.5t-24 113q0 65 23.5 113.5t65.5 76t96 27.5q55 0 96 -27.5t65 -76t24 -113.5q0 -64 -23.5 -113t-65 -76.5t-95.5 -27.5zM203 385q29 0 47 29.5t18 75.5q0 47 -18.5 77t-47.5 30q-25 0 -41.5 -30t-16.5 -77q0 -46 16.5 -75.5
t42.5 -29.5z" />
    <glyph glyph-name="one.numr" horiz-adv-x="279" 
d="M107 280v354l13 66h103v-420h-116zM25 535v112q25 -3 49 14t46 40l79 -73q-43 -51 -85 -74.5t-89 -18.5z" />
    <glyph glyph-name="two.numr" horiz-adv-x="372" 
d="M150 345l-121 20q0 15 14.5 37t39 46t54.5 43l32 20q16 10 34 24.5t18 30.5q0 13 -9.5 21t-32.5 8q-13 0 -23.5 -9.5t-14.5 -24.5l-127 20q5 34 26.5 62.5t57 46.5t82.5 18q79 0 123 -39t44 -102q0 -49 -26.5 -79t-65.5 -55l-35 -22q-13 -8 -28 -21.5t-27 -26t-15 -18.5z
M29 280v85l91 23h231v-108h-322z" />
    <glyph glyph-name="three.numr" horiz-adv-x="355" 
d="M185 273q-67 0 -115.5 31t-55.5 95l120 21q2 -10 9.5 -26t33.5 -16q15 0 24 8t9 23q0 5 -1.5 12.5t-11 13t-35.5 5.5h-43v76h38q44 0 84.5 -16t66.5 -44t26 -65q0 -39 -22 -65t-56 -39.5t-71 -13.5zM119 469v69h43q29 0 36.5 9.5t7.5 25.5q0 13 -8.5 21t-20.5 8
q-13 0 -26 -9t-15 -35l-119 21q4 43 29 71.5t61 42.5t72 14q41 0 75 -15t54.5 -41.5t20.5 -63.5q0 -42 -27 -68t-67 -38t-78 -12h-38z" />
    <glyph glyph-name="four.numr" horiz-adv-x="398" 
d="M95 394l-88 43l179 263l70 -68zM7 337v100l64 4h306v-104h-370zM204 280v358l-17 62h133v-420h-116z" />
    <glyph glyph-name="five.numr" horiz-adv-x="365" 
d="M185 273q-34 0 -69.5 12.5t-61.5 36t-33 55.5l121 22q2 -10 11.5 -15t22.5 -5q17 0 28 10.5t11 28.5q0 15 -10.5 27.5t-29.5 12.5q-12 0 -20 -5.5t-13 -16.5l-111 24l32 240h255v-112h-232l-23 108h122l-46 -251l-50 15q4 11 20 32.5t46.5 39t77.5 15.5q44 -1 77.5 -34.5
t33.5 -86.5q0 -68 -44.5 -110.5t-114.5 -42.5z" />
    <glyph glyph-name="six.numr" horiz-adv-x="367" 
d="M184 273q-54 0 -90.5 24.5t-54.5 66.5t-18 96q0 41 8.5 84.5t29 80.5t56.5 59.5t91 22.5q36 0 68.5 -9.5t58.5 -27.5l-57 -91q-18 12 -38 16.5t-34 4.5q-27 0 -47 -27t-20 -92l-25 11q14 29 39.5 46.5t59.5 17.5q40 0 70 -20.5t47.5 -53.5t17.5 -73q0 -58 -43 -97
t-119 -39zM185 375q16 0 27.5 12.5t11.5 28.5q0 17 -11.5 30t-27.5 13t-28 -13t-12 -30t12 -29t28 -12z" />
    <glyph glyph-name="seven.numr" horiz-adv-x="356" 
d="M70 280l126 307l139 28l-128 -335h-137zM18 587v113h317v-85l-139 -28h-178z" />
    <glyph glyph-name="eight.numr" horiz-adv-x="378" 
d="M189 273q-86 0 -127 32t-41 84q0 58 40.5 94t126.5 36t127.5 -36t41.5 -94q0 -52 -41.5 -84t-126.5 -32zM188 373q18 0 30 10t12 25q0 19 -12 30.5t-29 11.5q-18 0 -29.5 -11.5t-11.5 -30.5q0 -15 11.5 -25t28.5 -10zM188 540q17 0 27.5 11t10.5 27q0 14 -10.5 24
t-27.5 10q-16 0 -26 -10t-10 -24q0 -16 10 -27t26 -11zM188 482q-77 0 -116.5 31t-39.5 80q0 50 39.5 82t117.5 32q77 0 116.5 -32t39.5 -82q0 -49 -40 -80t-117 -31z" />
    <glyph glyph-name="nine.numr" horiz-adv-x="367" 
d="M161 272q-35 0 -68 9.5t-59 27.5l57 91q18 -12 39 -16.5t33 -4.5q26 0 46 25.5t21 94.5l25 -12q-13 -26 -37.5 -45t-61.5 -19q-40 0 -70 20.5t-47.5 54t-17.5 73.5q0 57 43 96.5t119 39.5q54 0 90.5 -24.5t54.5 -67t18 -96.5q0 -41 -8.5 -84t-29 -80t-56.5 -60t-91 -23z
M182 520q16 0 28 13.5t12 30.5t-12 29t-28 12t-27.5 -12t-11.5 -29t11.5 -30.5t27.5 -13.5z" />
    <glyph glyph-name="fraction" unicode="&#x2044;" horiz-adv-x="226" 
d="M-185 0l481 700h115l-481 -700h-115z" />
    <glyph glyph-name="onehalf" unicode="&#xbd;" horiz-adv-x="877" 
d="M107 280v354l13 66h103v-420h-116zM25 535v112q25 -3 49 14t46 40l79 -73q-43 -51 -85 -74.5t-89 -18.5zM94 0l481 700h115l-481 -700h-115zM655 65l-121 20q0 15 14.5 37t39 46t54.5 43l32 20q16 10 34 24.5t18 30.5q0 13 -9.5 21t-32.5 8q-13 0 -23.5 -9.5t-14.5 -24.5
l-127 20q5 34 26.5 62.5t57 46.5t82.5 18q79 0 123 -39t44 -102q0 -49 -26.5 -79t-65.5 -55l-35 -22q-13 -8 -28 -21.5t-27 -26t-15 -18.5zM534 0v85l91 23h231v-108h-322z" />
    <glyph glyph-name="onequarter" unicode="&#xbc;" horiz-adv-x="848" 
d="M107 280v354l13 66h103v-420h-116zM25 535v112q25 -3 49 14t46 40l79 -73q-43 -51 -85 -74.5t-89 -18.5zM94 0l481 700h115l-481 -700h-115zM545 114l-88 43l179 263l70 -68zM457 57v100l64 4h306v-104h-370zM654 0v358l-17 62h133v-420h-116z" />
    <glyph glyph-name="threequarters" unicode="&#xbe;" horiz-adv-x="924" 
d="M185 273q-67 0 -115.5 31t-55.5 95l120 21q2 -10 9.5 -26t33.5 -16q15 0 24 8t9 23q0 5 -1.5 12.5t-11 13t-35.5 5.5h-43v76h38q44 0 84.5 -16t66.5 -44t26 -65q0 -39 -22 -65t-56 -39.5t-71 -13.5zM119 469v69h43q29 0 36.5 9.5t7.5 25.5q0 13 -8.5 21t-20.5 8
q-13 0 -26 -9t-15 -35l-119 21q4 43 29 71.5t61 42.5t72 14q41 0 75 -15t54.5 -41.5t20.5 -63.5q0 -42 -27 -68t-67 -38t-78 -12h-38zM170 0l481 700h115l-481 -700h-115zM621 114l-88 43l179 263l70 -68zM533 57v100l64 4h306v-104h-370zM730 0v358l-17 62h133v-420h-116z
" />
    <glyph glyph-name="oneeighth" unicode="&#x215b;" horiz-adv-x="883" 
d="M107 280v354l13 66h103v-420h-116zM25 535v112q25 -3 49 14t46 40l79 -73q-43 -51 -85 -74.5t-89 -18.5zM94 0l481 700h115l-481 -700h-115zM694 -7q-86 0 -127 32t-41 84q0 58 40.5 94t126.5 36t127.5 -36t41.5 -94q0 -52 -41.5 -84t-126.5 -32zM693 93q18 0 30 10
t12 25q0 19 -12 30.5t-29 11.5q-18 0 -29.5 -11.5t-11.5 -30.5q0 -15 11.5 -25t28.5 -10zM693 260q17 0 27.5 11t10.5 27q0 14 -10.5 24t-27.5 10q-16 0 -26 -10t-10 -24q0 -16 10 -27t26 -11zM693 202q-77 0 -116.5 31t-39.5 80q0 50 39.5 82t117.5 32q77 0 116.5 -32
t39.5 -82q0 -49 -40 -80t-117 -31z" />
    <glyph glyph-name="threeeighths" unicode="&#x215c;" horiz-adv-x="959" 
d="M185 273q-67 0 -115.5 31t-55.5 95l120 21q2 -10 9.5 -26t33.5 -16q15 0 24 8t9 23q0 5 -1.5 12.5t-11 13t-35.5 5.5h-43v76h38q44 0 84.5 -16t66.5 -44t26 -65q0 -39 -22 -65t-56 -39.5t-71 -13.5zM119 469v69h43q29 0 36.5 9.5t7.5 25.5q0 13 -8.5 21t-20.5 8
q-13 0 -26 -9t-15 -35l-119 21q4 43 29 71.5t61 42.5t72 14q41 0 75 -15t54.5 -41.5t20.5 -63.5q0 -42 -27 -68t-67 -38t-78 -12h-38zM170 0l481 700h115l-481 -700h-115zM770 -7q-86 0 -127 32t-41 84q0 58 40.5 94t126.5 36t127.5 -36t41.5 -94q0 -52 -41.5 -84
t-126.5 -32zM769 93q18 0 30 10t12 25q0 19 -12 30.5t-29 11.5q-18 0 -29.5 -11.5t-11.5 -30.5q0 -15 11.5 -25t28.5 -10zM769 260q17 0 27.5 11t10.5 27q0 14 -10.5 24t-27.5 10q-16 0 -26 -10t-10 -24q0 -16 10 -27t26 -11zM769 202q-77 0 -116.5 31t-39.5 80
q0 50 39.5 82t117.5 32q77 0 116.5 -32t39.5 -82q0 -49 -40 -80t-117 -31z" />
    <glyph glyph-name="fiveeighths" unicode="&#x215d;" horiz-adv-x="969" 
d="M185 273q-34 0 -69.5 12.5t-61.5 36t-33 55.5l121 22q2 -10 11.5 -15t22.5 -5q17 0 28 10.5t11 28.5q0 15 -10.5 27.5t-29.5 12.5q-12 0 -20 -5.5t-13 -16.5l-111 24l32 240h255v-112h-232l-23 108h122l-46 -251l-50 15q4 11 20 32.5t46.5 39t77.5 15.5q44 -1 77.5 -34.5
t33.5 -86.5q0 -68 -44.5 -110.5t-114.5 -42.5zM180 0l481 700h115l-481 -700h-115zM780 -7q-86 0 -127 32t-41 84q0 58 40.5 94t126.5 36t127.5 -36t41.5 -94q0 -52 -41.5 -84t-126.5 -32zM779 93q18 0 30 10t12 25q0 19 -12 30.5t-29 11.5q-18 0 -29.5 -11.5t-11.5 -30.5
q0 -15 11.5 -25t28.5 -10zM779 260q17 0 27.5 11t10.5 27q0 14 -10.5 24t-27.5 10q-16 0 -26 -10t-10 -24q0 -16 10 -27t26 -11zM779 202q-77 0 -116.5 31t-39.5 80q0 50 39.5 82t117.5 32q77 0 116.5 -32t39.5 -82q0 -49 -40 -80t-117 -31z" />
    <glyph glyph-name="seveneighths" unicode="&#x215e;" horiz-adv-x="940" 
d="M70 280l126 307l139 28l-128 -335h-137zM18 587v113h317v-85l-139 -28h-178zM151 0l481 700h115l-481 -700h-115zM751 -7q-86 0 -127 32t-41 84q0 58 40.5 94t126.5 36t127.5 -36t41.5 -94q0 -52 -41.5 -84t-126.5 -32zM750 93q18 0 30 10t12 25q0 19 -12 30.5t-29 11.5
q-18 0 -29.5 -11.5t-11.5 -30.5q0 -15 11.5 -25t28.5 -10zM750 260q17 0 27.5 11t10.5 27q0 14 -10.5 24t-27.5 10q-16 0 -26 -10t-10 -24q0 -16 10 -27t26 -11zM750 202q-77 0 -116.5 31t-39.5 80q0 50 39.5 82t117.5 32q77 0 116.5 -32t39.5 -82q0 -49 -40 -80t-117 -31z
" />
    <glyph glyph-name="uni2080" unicode="&#x2080;" horiz-adv-x="406" 
d="M204 -106q-55 0 -96.5 27.5t-65.5 76.5t-24 113q0 65 23.5 113.5t65.5 76t96 27.5q55 0 96 -27.5t65 -76t24 -113.5q0 -64 -23.5 -113t-65 -76.5t-95.5 -27.5zM203 6q29 0 47 29.5t18 75.5q0 47 -18.5 77t-47.5 30q-25 0 -41.5 -30t-16.5 -77q0 -46 16.5 -75.5
t42.5 -29.5z" />
    <glyph glyph-name="uni2081" unicode="&#x2081;" horiz-adv-x="279" 
d="M107 -100v354l13 66h103v-420h-116zM25 155v112q25 -3 49 14t46 40l79 -73q-43 -51 -85 -74.5t-89 -18.5z" />
    <glyph glyph-name="uni2082" unicode="&#x2082;" horiz-adv-x="372" 
d="M150 -35l-121 20q0 15 14.5 37t39 46t54.5 43l32 20q16 10 34 24.5t18 30.5q0 13 -9.5 21t-32.5 8q-13 0 -23.5 -9.5t-14.5 -24.5l-127 20q5 34 26.5 62.5t57 46.5t82.5 18q79 0 123 -39t44 -102q0 -49 -26.5 -79t-65.5 -55l-35 -22q-13 -8 -28 -21.5t-27 -26t-15 -18.5z
M29 -100v85l91 23h231v-108h-322z" />
    <glyph glyph-name="uni2083" unicode="&#x2083;" horiz-adv-x="355" 
d="M185 -106q-67 0 -115.5 31t-55.5 95l120 21q2 -10 9.5 -26t33.5 -16q15 0 24 8t9 23q0 5 -1.5 12.5t-11 13t-35.5 5.5h-43v76h38q44 0 84.5 -16t66.5 -44t26 -65q0 -39 -22 -65t-56 -39.5t-71 -13.5zM119 90v69h43q29 0 36.5 9.5t7.5 25.5q0 13 -8.5 21t-20.5 8
q-13 0 -26 -9t-15 -35l-119 21q4 43 29 71.5t61 42.5t72 14q41 0 75 -15t54.5 -41.5t20.5 -63.5q0 -42 -27 -68t-67 -38t-78 -12h-38z" />
    <glyph glyph-name="uni2084" unicode="&#x2084;" horiz-adv-x="398" 
d="M95 14l-88 43l179 263l70 -68zM7 -43v100l64 4h306v-104h-370zM204 -100v358l-17 62h133v-420h-116z" />
    <glyph glyph-name="uni2085" unicode="&#x2085;" horiz-adv-x="365" 
d="M185 -107q-34 0 -69.5 12.5t-61.5 36t-33 55.5l121 22q2 -10 11.5 -15t22.5 -5q17 0 28 10.5t11 28.5q0 15 -10.5 27.5t-29.5 12.5q-12 0 -20 -5.5t-13 -16.5l-111 24l32 240h255v-112h-232l-23 108h122l-46 -251l-50 15q4 11 20 32.5t46.5 39t77.5 15.5
q44 -1 77.5 -34.5t33.5 -86.5q0 -68 -44.5 -110.5t-114.5 -42.5z" />
    <glyph glyph-name="uni2086" unicode="&#x2086;" horiz-adv-x="367" 
d="M184 -107q-54 0 -90.5 24.5t-54.5 66.5t-18 96q0 41 8.5 84.5t29 80.5t56.5 59.5t91 22.5q36 0 68.5 -9.5t58.5 -27.5l-57 -91q-18 12 -38 16.5t-34 4.5q-27 0 -47 -27t-20 -92l-25 11q14 29 39.5 46.5t59.5 17.5q40 0 70 -20.5t47.5 -53.5t17.5 -73q0 -58 -43 -97
t-119 -39zM185 -5q16 0 27.5 12.5t11.5 28.5q0 17 -11.5 30t-27.5 13t-28 -13t-12 -30t12 -29t28 -12z" />
    <glyph glyph-name="uni2087" unicode="&#x2087;" horiz-adv-x="356" 
d="M70 -100l126 307l139 28l-128 -335h-137zM18 207v113h317v-85l-139 -28h-178z" />
    <glyph glyph-name="uni2088" unicode="&#x2088;" horiz-adv-x="378" 
d="M189 -107q-86 0 -127 32t-41 84q0 58 40.5 94t126.5 36t127.5 -36t41.5 -94q0 -52 -41.5 -84t-126.5 -32zM188 -7q18 0 30 10t12 25q0 19 -12 30.5t-29 11.5q-18 0 -29.5 -11.5t-11.5 -30.5q0 -15 11.5 -25t28.5 -10zM188 160q17 0 27.5 11t10.5 27q0 14 -10.5 24
t-27.5 10q-16 0 -26 -10t-10 -24q0 -16 10 -27t26 -11zM188 102q-77 0 -116.5 31t-39.5 80q0 50 39.5 82t117.5 32q77 0 116.5 -32t39.5 -82q0 -49 -40 -80t-117 -31z" />
    <glyph glyph-name="uni2089" unicode="&#x2089;" horiz-adv-x="367" 
d="M161 -108q-35 0 -68 9.5t-59 27.5l57 91q18 -12 39 -16.5t33 -4.5q26 0 46 25.5t21 94.5l25 -12q-13 -26 -37.5 -45t-61.5 -19q-40 0 -70 20.5t-47.5 54t-17.5 73.5q0 57 43 96.5t119 39.5q54 0 90.5 -24.5t54.5 -67t18 -96.5q0 -41 -8.5 -84t-29 -80t-56.5 -60t-91 -23z
M182 140q16 0 28 13.5t12 30.5t-12 29t-28 12t-27.5 -12t-11.5 -29t11.5 -30.5t27.5 -13.5z" />
    <glyph glyph-name="uni2070" unicode="&#x2070;" horiz-adv-x="406" 
d="M204 373q-55 0 -96.5 27.5t-65.5 76.5t-24 113q0 65 23.5 113.5t65.5 76t96 27.5q55 0 96 -27.5t65 -76t24 -113.5q0 -64 -23.5 -113t-65 -76.5t-95.5 -27.5zM203 485q29 0 47 29.5t18 75.5q0 47 -18.5 77t-47.5 30q-25 0 -41.5 -30t-16.5 -77q0 -46 16.5 -75.5
t42.5 -29.5z" />
    <glyph glyph-name="uni00B9" unicode="&#xb9;" horiz-adv-x="279" 
d="M107 380v354l13 66h103v-420h-116zM25 635v112q25 -3 49 14t46 40l79 -73q-43 -51 -85 -74.5t-89 -18.5z" />
    <glyph glyph-name="uni00B2" unicode="&#xb2;" horiz-adv-x="372" 
d="M150 445l-121 20q0 15 14.5 37t39 46t54.5 43l32 20q16 10 34 24.5t18 30.5q0 13 -9.5 21t-32.5 8q-13 0 -23.5 -9.5t-14.5 -24.5l-127 20q5 34 26.5 62.5t57 46.5t82.5 18q79 0 123 -39t44 -102q0 -49 -26.5 -79t-65.5 -55l-35 -22q-13 -8 -28 -21.5t-27 -26t-15 -18.5z
M29 380v85l91 23h231v-108h-322z" />
    <glyph glyph-name="uni00B3" unicode="&#xb3;" horiz-adv-x="355" 
d="M185 373q-67 0 -115.5 31t-55.5 95l120 21q2 -10 9.5 -26t33.5 -16q15 0 24 8t9 23q0 5 -1.5 12.5t-11 13t-35.5 5.5h-43v76h38q44 0 84.5 -16t66.5 -44t26 -65q0 -39 -22 -65t-56 -39.5t-71 -13.5zM119 569v69h43q29 0 36.5 9.5t7.5 25.5q0 13 -8.5 21t-20.5 8
q-13 0 -26 -9t-15 -35l-119 21q4 43 29 71.5t61 42.5t72 14q41 0 75 -15t54.5 -41.5t20.5 -63.5q0 -42 -27 -68t-67 -38t-78 -12h-38z" />
    <glyph glyph-name="uni2074" unicode="&#x2074;" horiz-adv-x="398" 
d="M95 494l-88 43l179 263l70 -68zM7 437v100l64 4h306v-104h-370zM204 380v358l-17 62h133v-420h-116z" />
    <glyph glyph-name="uni2075" unicode="&#x2075;" horiz-adv-x="365" 
d="M185 373q-34 0 -69.5 12.5t-61.5 36t-33 55.5l121 22q2 -10 11.5 -15t22.5 -5q17 0 28 10.5t11 28.5q0 15 -10.5 27.5t-29.5 12.5q-12 0 -20 -5.5t-13 -16.5l-111 24l32 240h255v-112h-232l-23 108h122l-46 -251l-50 15q4 11 20 32.5t46.5 39t77.5 15.5q44 -1 77.5 -34.5
t33.5 -86.5q0 -68 -44.5 -110.5t-114.5 -42.5z" />
    <glyph glyph-name="uni2076" unicode="&#x2076;" horiz-adv-x="367" 
d="M184 373q-54 0 -90.5 24.5t-54.5 66.5t-18 96q0 41 8.5 84.5t29 80.5t56.5 59.5t91 22.5q36 0 68.5 -9.5t58.5 -27.5l-57 -91q-18 12 -38 16.5t-34 4.5q-27 0 -47 -27t-20 -92l-25 11q14 29 39.5 46.5t59.5 17.5q40 0 70 -20.5t47.5 -53.5t17.5 -73q0 -58 -43 -97
t-119 -39zM185 475q16 0 27.5 12.5t11.5 28.5q0 17 -11.5 30t-27.5 13t-28 -13t-12 -30t12 -29t28 -12z" />
    <glyph glyph-name="uni2077" unicode="&#x2077;" horiz-adv-x="356" 
d="M70 380l126 307l139 28l-128 -335h-137zM18 687v113h317v-85l-139 -28h-178z" />
    <glyph glyph-name="uni2078" unicode="&#x2078;" horiz-adv-x="378" 
d="M189 373q-86 0 -127 32t-41 84q0 58 40.5 94t126.5 36t127.5 -36t41.5 -94q0 -52 -41.5 -84t-126.5 -32zM188 473q18 0 30 10t12 25q0 19 -12 30.5t-29 11.5q-18 0 -29.5 -11.5t-11.5 -30.5q0 -15 11.5 -25t28.5 -10zM188 640q17 0 27.5 11t10.5 27q0 14 -10.5 24
t-27.5 10q-16 0 -26 -10t-10 -24q0 -16 10 -27t26 -11zM188 582q-77 0 -116.5 31t-39.5 80q0 50 39.5 82t117.5 32q77 0 116.5 -32t39.5 -82q0 -49 -40 -80t-117 -31z" />
    <glyph glyph-name="uni2079" unicode="&#x2079;" horiz-adv-x="367" 
d="M161 372q-35 0 -68 9.5t-59 27.5l57 91q18 -12 39 -16.5t33 -4.5q26 0 46 25.5t21 94.5l25 -12q-13 -26 -37.5 -45t-61.5 -19q-40 0 -70 20.5t-47.5 54t-17.5 73.5q0 57 43 96.5t119 39.5q54 0 90.5 -24.5t54.5 -67t18 -96.5q0 -41 -8.5 -84t-29 -80t-56.5 -60t-91 -23z
M182 620q16 0 28 13.5t12 30.5t-12 29t-28 12t-27.5 -12t-11.5 -29t11.5 -30.5t27.5 -13.5z" />
    <glyph glyph-name="space" unicode=" " horiz-adv-x="230" 
 />
    <glyph glyph-name="uni00A0" unicode="&#xa0;" horiz-adv-x="230" 
 />
    <glyph glyph-name="CR" unicode="&#xd;" horiz-adv-x="600" 
 />
    <glyph glyph-name="period" unicode="." horiz-adv-x="286" 
d="M143 -15q-42 0 -72.5 30.5t-30.5 72.5t30.5 72.5t72.5 30.5t72.5 -30.5t30.5 -72.5t-30.5 -72.5t-72.5 -30.5z" />
    <glyph glyph-name="comma" unicode="," horiz-adv-x="286" 
d="M18 -113l66 259h180l-116 -259h-130z" />
    <glyph glyph-name="colon" unicode=":" horiz-adv-x="346" 
d="M173 294q-42 0 -72.5 30.5t-30.5 72.5t30.5 72.5t72.5 30.5t72.5 -30.5t30.5 -72.5t-30.5 -72.5t-72.5 -30.5zM173 -1q-42 0 -72.5 30.5t-30.5 72.5t30.5 72.5t72.5 30.5t72.5 -30.5t30.5 -72.5t-30.5 -72.5t-72.5 -30.5z" />
    <glyph glyph-name="semicolon" unicode=";" horiz-adv-x="347" 
d="M174 290q-42 0 -72.5 30.5t-30.5 72.5t30.5 72.5t72.5 30.5t72.5 -30.5t30.5 -72.5t-30.5 -72.5t-72.5 -30.5zM28 -113l66 259h180l-116 -259h-130z" />
    <glyph glyph-name="ellipsis" unicode="&#x2026;" horiz-adv-x="798" 
d="M143 -15q-42 0 -72.5 30.5t-30.5 72.5t30.5 72.5t72.5 30.5t72.5 -30.5t30.5 -72.5t-30.5 -72.5t-72.5 -30.5zM399 -15q-42 0 -72.5 30.5t-30.5 72.5t30.5 72.5t72.5 30.5t72.5 -30.5t30.5 -72.5t-30.5 -72.5t-72.5 -30.5zM655 -15q-42 0 -72.5 30.5t-30.5 72.5
t30.5 72.5t72.5 30.5t72.5 -30.5t30.5 -72.5t-30.5 -72.5t-72.5 -30.5z" />
    <glyph glyph-name="exclam" unicode="!" horiz-adv-x="326" 
d="M78 251l-15 449h200l-15 -449h-170zM163 -16q-42 0 -72.5 30.5t-30.5 72.5t30.5 72.5t72.5 30.5t72.5 -30.5t30.5 -72.5t-30.5 -72.5t-72.5 -30.5z" />
    <glyph glyph-name="exclamdown" unicode="&#xa1;" horiz-adv-x="306" 
d="M248 245l15 -449h-200l15 449h170zM163 512q42 0 72.5 -30.5t30.5 -72.5t-30.5 -72.5t-72.5 -30.5t-72.5 30.5t-30.5 72.5t30.5 72.5t72.5 30.5z" />
    <glyph glyph-name="question" unicode="?" horiz-adv-x="522" 
d="M151 213l-7 174l93 9q40 5 65 23t25 59q0 32 -23 53t-60 21q-25 0 -42.5 -13.5t-25.5 -33.5l-161 43q20 76 80 120t149 44q74 0 131 -30t89.5 -82.5t32.5 -121.5q0 -50 -21.5 -89.5t-61 -65t-92.5 -34.5l-3 -76h-168zM235 -15q-42 0 -72.5 30.5t-30.5 72.5t30.5 72.5
t72.5 30.5t72.5 -30.5t30.5 -72.5t-30.5 -72.5t-72.5 -30.5z" />
    <glyph glyph-name="questiondown" unicode="&#xbf;" horiz-adv-x="476" 
d="M345 284l7 -174l-93 -9q-40 -4 -65 -22.5t-25 -59.5q0 -32 23 -53t60 -21q26 0 43.5 13.5t24.5 33.5l161 -43q-19 -76 -79.5 -120t-149.5 -44q-74 0 -131 30t-89.5 83t-32.5 121q0 51 21.5 90t61 64.5t92.5 34.5l3 76h168zM261 512q42 0 72.5 -30.5t30.5 -72.5
t-30.5 -72.5t-72.5 -30.5t-72.5 30.5t-30.5 72.5t30.5 72.5t72.5 30.5z" />
    <glyph glyph-name="periodcentered" unicode="&#xb7;" horiz-adv-x="266" 
d="M133 246q-42 0 -72.5 30.5t-30.5 72.5t30.5 72.5t72.5 30.5t72.5 -30.5t30.5 -72.5t-30.5 -72.5t-72.5 -30.5z" />
    <glyph glyph-name="bullet" unicode="&#x2022;" horiz-adv-x="449" 
d="M224 155q-37 0 -67.5 18t-48.5 48t-18 67t18 66.5t48.5 47.5t67.5 18q38 0 68.5 -18t48.5 -47.5t18 -66.5t-18 -67t-48.5 -48t-68.5 -18z" />
    <glyph glyph-name="asterisk" unicode="*" horiz-adv-x="494" 
d="M315 324l-100 172l64 47l133 -148zM180 323l-97 70l132 149l65 -47zM235 480l-195 42l37 114l182 -80zM207 518l-20 198h120l-20 -198h-80zM259 480l-24 76l182 80l37 -114z" />
    <glyph glyph-name="numbersign" unicode="#" horiz-adv-x="633" 
d="M303 0l110 700h127l-110 -700h-127zM10 169l18 126h562l-18 -126h-562zM98 0l110 700h127l-110 -700h-127zM38 373l23 127h562l-23 -127h-562z" />
    <glyph glyph-name="slash" unicode="/" horiz-adv-x="472" 
d="M15 -84l276 831h166l-274 -831h-168z" />
    <glyph glyph-name="backslash" unicode="\" horiz-adv-x="472" 
d="M457 -84h-168l-274 831h166z" />
    <glyph glyph-name="periodcentered.loclCAT" horiz-adv-x="166" 
d="M83 226q-42 0 -72.5 30.5t-30.5 72.5t30.5 72.5t72.5 30.5t72.5 -30.5t30.5 -72.5t-30.5 -72.5t-72.5 -30.5z" />
    <glyph glyph-name="periodcentered.loclCAT.case" horiz-adv-x="0" 
d="M-103 286q-42 0 -72.5 30.5t-30.5 72.5t30.5 72.5t72.5 30.5t72.5 -30.5t30.5 -72.5t-30.5 -72.5t-72.5 -30.5z" />
    <glyph glyph-name="hyphen" unicode="-" horiz-adv-x="400" 
d="M50 223v150h300v-150h-300z" />
    <glyph glyph-name="endash" unicode="&#x2013;" horiz-adv-x="550" 
d="M0 223v150h550v-150h-550z" />
    <glyph glyph-name="emdash" unicode="&#x2014;" horiz-adv-x="1100" 
d="M0 223v150h1100v-150h-1100z" />
    <glyph glyph-name="underscore" unicode="_" horiz-adv-x="430" 
d="M15 -150v150h400v-150h-400z" />
    <glyph glyph-name="parenleft" unicode="(" horiz-adv-x="410" 
d="M206 -100q-46 61 -84 132.5t-60 151.5t-22 166q0 87 22 166.5t60 151t84 132.5h174q-46 -64 -84 -137t-60 -151.5t-22 -161.5q0 -82 22 -161t60 -151.5t84 -137.5h-174z" />
    <glyph glyph-name="parenright" unicode=")" horiz-adv-x="410" 
d="M204 -100h-174q47 65 84.5 137.5t59.5 151.5t22 161q0 83 -22 161.5t-59.5 151.5t-84.5 137h174q47 -61 84.5 -132.5t59.5 -151t22 -166.5q0 -86 -22 -166t-59.5 -151.5t-84.5 -132.5z" />
    <glyph glyph-name="braceleft" unicode="{" horiz-adv-x="402" 
d="M50 339v76q36 0 55.5 8t27 29t7.5 60q0 86 9.5 142t33 88t64.5 45t105 13v-138q-25 0 -38.5 -13t-18.5 -45t-5 -91q0 -69 -20 -107t-72 -52.5t-148 -14.5zM352 -100q-64 0 -105 13t-64.5 45t-33 88t-9.5 142q0 39 -7.5 60t-27 29t-55.5 8v76q97 0 149 -14.5t72 -52
t20 -107.5q0 -59 5 -91t18.5 -44.5t37.5 -13.5v-138z" />
    <glyph glyph-name="braceright" unicode="}" horiz-adv-x="402" 
d="M352 339q-96 0 -148 14.5t-72 52.5t-20 107q0 59 -5 91t-18.5 45t-38.5 13v138q64 0 105 -13t64.5 -45t33 -88t9.5 -142q0 -39 7.5 -60t27 -29t55.5 -8v-76zM50 -100v138q25 1 38 13.5t18 44.5t5 91q0 70 20 107.5t72.5 52t148.5 14.5v-76q-36 0 -55.5 -8t-27 -29
t-7.5 -60q0 -86 -9.5 -142t-33 -88t-64.5 -45t-105 -13z" />
    <glyph glyph-name="bracketleft" unicode="[" horiz-adv-x="362" 
d="M60 -100v900h262v-160h-112v-580h112v-160h-262z" />
    <glyph glyph-name="bracketright" unicode="]" horiz-adv-x="362" 
d="M302 -100h-262v160h112v580h-112v160h262v-900z" />
    <glyph glyph-name="quotesinglbase" unicode="&#x201a;" horiz-adv-x="286" 
d="M18 -113l66 259h180l-116 -259h-130z" />
    <glyph glyph-name="quotedblbase" unicode="&#x201e;" horiz-adv-x="493" 
d="M239 -113l66 259h180l-116 -259h-130zM0 -113l66 259h180l-116 -259h-130z" />
    <glyph glyph-name="quotedblleft" unicode="&#x201c;" horiz-adv-x="493" 
d="M246 704l-66 -259h-180l116 259h130zM485 704l-66 -259h-180l116 259h130z" />
    <glyph glyph-name="quotedblright" unicode="&#x201d;" horiz-adv-x="493" 
d="M247 441l66 259h180l-116 -259h-130zM8 441l66 259h180l-116 -259h-130z" />
    <glyph glyph-name="quoteleft" unicode="&#x2018;" horiz-adv-x="254" 
d="M246 700l-66 -259h-180l116 259h130z" />
    <glyph glyph-name="quoteright" unicode="&#x2019;" horiz-adv-x="254" 
d="M8 441l66 259h180l-116 -259h-130z" />
    <glyph glyph-name="guillemotleft" unicode="&#xab;" horiz-adv-x="706" 
d="M318 298l142 202h201l-133 -202h-210zM460 96l-142 202h210l133 -202h-201zM45 298l142 202h201l-133 -202h-210zM187 96l-142 202h210l133 -202h-201z" />
    <glyph glyph-name="guillemotright" unicode="&#xbb;" horiz-adv-x="706" 
d="M388 298h-210l-133 202h201zM246 96h-201l133 202h210zM661 298h-210l-133 202h201zM519 96h-201l133 202h210z" />
    <glyph glyph-name="guilsinglleft" unicode="&#x2039;" horiz-adv-x="438" 
d="M45 298l142 202h201l-133 -202h-210zM187 96l-142 202h210l133 -202h-201z" />
    <glyph glyph-name="guilsinglright" unicode="&#x203a;" horiz-adv-x="438" 
d="M393 298h-210l-133 202h201zM251 96h-201l133 202h210z" />
    <glyph glyph-name="quotedbl" unicode="&#x22;" horiz-adv-x="497" 
d="M80 440l-20 276h167l-20 -276h-127zM290 440l-20 276h167l-20 -276h-127z" />
    <glyph glyph-name="quotesingle" unicode="'" horiz-adv-x="287" 
d="M80 440l-20 276h167l-20 -276h-127z" />
    <glyph glyph-name="at" unicode="@" horiz-adv-x="994" 
d="M517 -208q-108 0 -198 34t-156 95.5t-102 145.5t-36 185q0 102 36 186.5t102 146.5t156 96t198 34q99 0 182 -34t143.5 -96t93.5 -146.5t33 -186.5h-120q0 75 -24.5 138t-69 109t-105 71t-133.5 25q-82 0 -150 -25t-118 -71t-77 -109t-27 -138t27 -137t77 -107.5
t118 -70.5t150 -25q32 0 66.5 11t56.5 28l71 -97q-42 -27 -96 -44.5t-98 -17.5zM450 14q-57 0 -101 30.5t-68.5 84.5t-24.5 123q0 70 24.5 123t68.5 83.5t101 30.5q63 0 111 -30.5t75.5 -83.5t27.5 -123q0 -69 -27.5 -123t-75.5 -84.5t-111 -30.5zM511 158q23 0 40.5 12
t27.5 33t10 49t-11.5 48.5t-31 32.5t-44.5 12q-24 0 -42.5 -11.5t-29 -32.5t-10.5 -48q0 -28 12 -49.5t32.5 -33.5t46.5 -12zM751 -15q-43 0 -79.5 17.5t-58 48t-21.5 69.5l130 10q0 -25 12 -32t31 -7q25 0 43.5 20.5t29.5 57t11 83.5h120q0 -78 -28 -138t-77 -94.5
t-113 -34.5zM592 120l-10 359h140v-349z" />
    <glyph glyph-name="ampersand" unicode="&#x26;" horiz-adv-x="651" 
d="M249 -12q-64 0 -113.5 24.5t-77.5 67.5t-28 99q0 31 11.5 60.5t33 56t50.5 46.5l169 116q7 5 20.5 14.5t25.5 25.5t12 37q0 20 -16 30t-39 10q-25 0 -40.5 -10.5t-15.5 -29.5q0 -22 14 -38t29 -36l142 -171l241 -290h-202l-158 188l-158 192q-32 41 -49 68.5t-23 48.5
t-6 40q0 51 29 90.5t78 62t109 22.5q67 0 118.5 -23t80.5 -64t29 -95q0 -42 -21 -77.5t-65.5 -73.5t-115.5 -87l-69 -48q-10 -7 -16.5 -17t-10 -21t-3.5 -22q0 -21 13.5 -34.5t35.5 -13.5q33 0 70 9t69.5 28.5t52.5 50t20 73.5h162q0 -90 -49.5 -160t-137 -109.5
t-201.5 -39.5z" />
    <glyph glyph-name="paragraph" unicode="&#xb6;" horiz-adv-x="621" 
d="M275 210q-79 0 -140 31.5t-95.5 87t-34.5 127.5t34.5 127t95.5 86t140 31h41v-490h-41zM282 -84v784h117v-784h-117zM444 -84v784h117v-784h-117zM388 530v170h67v-170h-67z" />
    <glyph glyph-name="section" unicode="&#xa7;" horiz-adv-x="482" 
d="M244 -91q-53 0 -100 18t-77.5 48t-36.5 64l127 39q8 -24 30 -40t53 -17q30 -1 51 13.5t21 40.5q0 19 -14.5 32.5t-41.5 20.5l-79 21q-61 17 -98 57.5t-37 101.5q0 79 54 123.5t149 44.5q51 0 89.5 -14t66 -42.5t43.5 -70.5l-123 -39q-6 21 -25.5 37.5t-51.5 16.5
q-33 0 -51 -14t-18 -42q0 -18 14.5 -29t39.5 -18l81 -22q64 -17 100.5 -62t36.5 -102q0 -78 -53 -122t-150 -44zM247 145q-49 0 -92.5 19t-71.5 49.5t-34 66.5l111 33q5 -15 21.5 -28t35 -20.5t27.5 -7.5q29 0 50 14t21 39q0 20 -14.5 33.5t-41.5 20.5l-79 21
q-61 17 -98 57.5t-37 101.5q0 79 54 123.5t149 44.5q52 0 91.5 -14t67 -42t44.5 -70l-127 -40q-6 21 -25.5 37.5t-51.5 16.5q-33 0 -51 -14t-18 -42q0 -18 15 -30.5t40 -18.5l80 -20q64 -16 100.5 -61.5t36.5 -103.5q0 -77 -53 -121t-150 -44z" />
    <glyph glyph-name="copyright" unicode="&#xa9;" horiz-adv-x="773" 
d="M387 -11q-79 0 -145.5 26.5t-115 75t-75 114.5t-26.5 145q0 80 26.5 146t75 114.5t115 75t145.5 26.5t145 -26.5t114.5 -75t75 -114.5t26.5 -146q0 -79 -26.5 -145t-75 -114.5t-114.5 -75t-145 -26.5zM388 152q-58 0 -100 23.5t-64 68t-22 106.5t22 106.5t63.5 68
t99.5 23.5q48 0 90 -25t68 -70l12 -25l-99 -37l-12 17q-13 14 -29 22t-30 8q-34 0 -52.5 -23.5t-18.5 -64.5t19 -64.5t53 -23.5q16 0 32.5 11.5t31.5 30.5l6 10l102 -36l-9 -17q-25 -52 -68 -80.5t-95 -28.5zM387 99q73 0 128.5 32t87 89t31.5 130q0 74 -31.5 131t-87 89
t-128.5 32q-72 0 -128 -32t-88 -89t-32 -131q0 -73 32 -130t88 -89t128 -32z" />
    <glyph glyph-name="registered" unicode="&#xae;" horiz-adv-x="608" 
d="M304 144q-59 0 -110.5 22t-90.5 61t-61 90.5t-22 110.5t22 110.5t61 90.5t90.5 61t110.5 22t110.5 -22t90.5 -61t61 -90.5t22 -110.5t-22 -110.5t-61 -90.5t-90.5 -61t-110.5 -22zM304 220q62 0 108.5 26t72 73t25.5 109q0 63 -25.5 109.5t-72 72.5t-108.5 26t-108.5 -26
t-72 -72.5t-25.5 -109.5q0 -62 25.5 -109t72 -73t108.5 -26zM195 292v291l121 1q50 0 81 -28t31 -72q0 -28 -14 -51t-38 -35l64 -106h-88l-53 92h-27v-92h-77zM272 455h40q15 0 25 8t10 21t-10 21t-25 8h-40v-58z" />
    <glyph glyph-name="trademark" unicode="&#x2122;" horiz-adv-x="899" 
d="M638 357l-107 154v-231h-123v420h137l93 -137l92 137h137v-420h-123v231zM127 280v307h-116v113h354v-113h-115v-307h-123z" />
    <glyph glyph-name="degree" unicode="&#xb0;" horiz-adv-x="387" 
d="M193 403q-44 0 -81 21t-59.5 57t-22.5 80t22.5 79t60 55.5t81.5 20.5q43 0 80.5 -20.5t60 -55.5t22.5 -79t-22.5 -80t-60 -57t-81.5 -21zM193 513q18 0 31 14.5t13 33.5t-13 32t-31 13q-17 0 -30 -13t-13 -32t13 -33.5t30 -14.5z" />
    <glyph glyph-name="bar" unicode="|" horiz-adv-x="255" 
d="M60 -220v1010h135v-1010h-135z" />
    <glyph glyph-name="brokenbar" unicode="&#xa6;" horiz-adv-x="335" 
d="M100 350v440h135v-440h-135zM100 -220v440h135v-440h-135z" />
    <glyph glyph-name="dagger" unicode="&#x2020;" horiz-adv-x="494" 
d="M156 0l45 429l-35 271h162l-35 -271l45 -429h-182zM32 346v166l215 -35l214 35v-166l-214 35z" />
    <glyph glyph-name="daggerdbl" unicode="&#x2021;" horiz-adv-x="494" 
d="M153 -200l45 271l-25 179l25 179l-35 271h162l-35 -271l25 -179l-25 -179l45 -271h-182zM35 -7v156l215 -30l214 30v-156l-214 30zM29 351v156l215 -30l214 30v-156l-214 30z" />
    <glyph glyph-name="cent" unicode="&#xa2;" horiz-adv-x="545" 
d="M248 0v700h83v-700h-83zM302 98q-82 0 -146 33.5t-100 93t-36 135.5q0 77 36 136t99 92.5t145 33.5q79 0 145 -41t94 -119l-172 -56q-8 20 -29.5 33t-47.5 13q-25 0 -44 -11.5t-30 -32.5t-11 -48t11 -47.5t31 -32.5t45 -12t46 13t30 33l172 -55q-28 -78 -93.5 -119.5
t-144.5 -41.5z" />
    <glyph glyph-name="currency" unicode="&#xa4;" horiz-adv-x="638" 
d="M321 131q-67 0 -118.5 28t-80.5 77.5t-29 113.5t29 113.5t80 77.5t117 28q67 0 118 -28t80 -77.5t29 -113.5t-28.5 -113.5t-79.5 -77.5t-117 -28zM158 91l-97 97l144 145l100 -95zM320 281q29 0 47.5 19.5t18.5 49.5t-19 49.5t-48 19.5q-28 0 -47 -19.5t-19 -49.5
t19 -49.5t48 -19.5zM217 359l-157 153l97 97l159 -155zM481 91l-149 147l99 95l147 -145zM424 368l-100 95l157 146l97 -97z" />
    <glyph glyph-name="dollar" unicode="$" horiz-adv-x="546" 
d="M277 24q-59 0 -113 21t-90.5 56t-43.5 76l166 46q8 -22 27.5 -38t51.5 -18q25 -1 44.5 13.5t19.5 38.5q0 15 -11.5 29t-35.5 20l-95 24q-49 13 -83.5 39t-52.5 64t-18 85q0 92 61.5 144t172.5 52q59 0 104.5 -15t79 -48t54.5 -87l-165 -47q-4 17 -22.5 35.5t-50.5 18.5
q-30 0 -46.5 -13.5t-16.5 -39.5q0 -16 13.5 -28t38.5 -19l95 -25q72 -19 112.5 -70.5t40.5 -119.5q0 -62 -28.5 -105.5t-81.5 -66t-127 -22.5zM208 -103v883h144v-883h-144z" />
    <glyph glyph-name="Euro" unicode="&#x20ac;" horiz-adv-x="725" 
d="M414 -12q-98 0 -173.5 46.5t-118 128t-42.5 187.5t42.5 187.5t118 128t173.5 46.5q72 0 130 -26.5t100 -74.5t64 -111l-164 -56q-12 30 -31 52t-43.5 34t-55.5 12q-42 0 -74.5 -24.5t-51 -67.5t-18.5 -100q0 -56 19 -99.5t52 -68t75 -24.5q34 0 58 12.5t41 34.5t30 52
l165 -56q-22 -63 -64 -111t-100.5 -75t-131.5 -27zM10 254v82h475v-82h-475zM10 364v82h475v-82h-475z" />
    <glyph glyph-name="sterling" unicode="&#xa3;" horiz-adv-x="613" 
d="M105 230v246q0 81 30.5 133.5t85 77.5t127.5 25q69 0 122 -23.5t83 -71.5t30 -124l-180 11q0 29 -17 42.5t-40 13.5q-28 0 -44.5 -21t-16.5 -63v-236zM54 88v82q21 0 36 17.5t15 42.5l180 10q0 -41 -31.5 -76t-84 -55.5t-115.5 -20.5zM40 0v170h543v-170h-543zM40 272
v140h453v-140h-453z" />
    <glyph glyph-name="yen" unicode="&#xa5;" horiz-adv-x="646" 
d="M409 287l-171 31l193 382h210zM231 0v336h185v-336h-185zM85 164v92h475v-92h-475zM85 284v92h475v-92h-475zM237 287l-232 413h210l193 -382z" />
    <glyph glyph-name="uni2215" unicode="&#x2215;" 
d="M28 0l481 700h103l-481 -700h-103z" />
    <glyph glyph-name="plus" unicode="+" 
d="M250 63v470h140v-470h-140zM85 228v140h470v-140h-470z" />
    <glyph glyph-name="minus" unicode="&#x2212;" 
d="M125 226v144h390v-144h-390z" />
    <glyph glyph-name="multiply" unicode="&#xd7;" 
d="M442 79l-341 341l97 97l341 -341zM198 79l-97 97l340 341l97 -97z" />
    <glyph glyph-name="divide" unicode="&#xf7;" 
d="M105 226v144h430v-144h-430zM320 50q-29 0 -50.5 22t-21.5 51t21.5 51t50.5 22t51 -22t22 -51t-22 -51t-51 -22zM320 400q-29 0 -51 21.5t-22 50.5t22 51t51 22t50.5 -22t21.5 -51t-21.5 -50.5t-50.5 -21.5z" />
    <glyph glyph-name="equal" unicode="=" 
d="M120 328v139h400v-139h-400zM120 128v139h400v-139h-400z" />
    <glyph glyph-name="notequal" unicode="&#x2260;" 
d="M120 74l263 512h132l-263 -512h-132zM120 361v139h400v-139h-400zM120 161v139h400v-139h-400z" />
    <glyph glyph-name="greater" unicode="&#x3e;" 
d="M120 60v157l401 147v-135zM521 234l-401 145v157l401 -167v-135z" />
    <glyph glyph-name="less" unicode="&#x3c;" 
d="M520 536v-157l-401 -147v135zM119 362l401 -145v-157l-401 167v135z" />
    <glyph glyph-name="greaterequal" unicode="&#x2265;" 
d="M120 0v120h401v-120h-401zM120 143v141l401 133v-122zM521 300l-401 130v141l401 -150v-121z" />
    <glyph glyph-name="lessequal" unicode="&#x2264;" 
d="M520 0h-401v120h401v-120zM520 143l-401 152v122l401 -133v-141zM119 300v121l401 150v-141z" />
    <glyph glyph-name="plusminus" unicode="&#xb1;" 
d="M85 328v130h470v-130h-470zM85 30v120h470v-120h-470zM250 178v430h140v-430h-140z" />
    <glyph glyph-name="logicalnot" unicode="&#xac;" 
d="M130 265v144h370v-144h-370zM356 135v274h144v-274h-144z" />
    <glyph glyph-name="asciitilde" unicode="~" horiz-adv-x="759" 
d="M510 145q-46 0 -82 15.5t-61 39.5t-41 50q-13 21 -28.5 42t-44.5 21q-30 0 -44.5 -19t-18.5 -49h-140q0 72 26.5 126.5t72 85.5t100.5 31q68 0 116.5 -21t76.5 -84q10 -22 27.5 -42.5t39.5 -20.5q25 0 41 17t19 51h140q0 -71 -26.5 -126t-71.5 -86t-101 -31z" />
    <glyph glyph-name="asciicircum" unicode="^" horiz-adv-x="609" 
d="M387 373l-162 327h157l157 -327h-152zM70 373l155 327h156l-158 -327h-153z" />
    <glyph glyph-name="uni00B5" unicode="&#xb5;" horiz-adv-x="578" 
d="M281 -12q-60 0 -94.5 55.5t-33.5 170.5l67 30q0 -28 6.5 -47t19 -29t31.5 -11q38 -1 57 18t19 59h49q0 -118 -30.5 -182t-90.5 -64zM40 -200v700h180v-401h-20v-299h-160zM363 0l-10 92v408h180v-500h-170z" />
    <glyph glyph-name="percent" unicode="%" horiz-adv-x="838" 
d="M83 0l497 700h168l-500 -700h-165zM634 -15q-49 0 -87.5 23t-60 64t-21.5 93q0 53 21.5 93.5t60 63.5t88.5 23q49 0 87 -23t59.5 -63.5t21.5 -93.5q0 -52 -21.5 -93t-59.5 -64t-88 -23zM634 96q24 0 38.5 20t14.5 49t-14.5 49t-38.5 20t-38.5 -20t-14.5 -49t14.5 -49
t38.5 -20zM204 356q-49 0 -87.5 23t-60 64t-21.5 93q0 53 21.5 93.5t60 63.5t88.5 23q49 0 87 -23t59.5 -63.5t21.5 -93.5q0 -52 -21.5 -93t-59.5 -64t-88 -23zM204 467q24 0 38.5 20t14.5 49t-14.5 49t-38.5 20t-38.5 -20t-14.5 -49t14.5 -49t38.5 -20z" />
    <glyph glyph-name="arrowup" unicode="&#x2191;" horiz-adv-x="764" 
d="M465 576l-269 -241l-106 108l295 269zM459 0h-150v619h150v-619zM674 437l-107 -106l-266 246l84 135z" />
    <glyph glyph-name="uni2197" unicode="&#x2197;" horiz-adv-x="628" 
d="M166 191l-106 106l389 389l106 -106zM168 554v146h400l-37 -144zM422 300l2 363l144 37v-400h-146z" />
    <glyph glyph-name="arrowright" unicode="&#x2192;" horiz-adv-x="758" 
d="M567 217l-241 269l108 106l269 -295zM60 223v150h550v-150h-550zM428 8l-106 107l246 266l135 -84z" />
    <glyph glyph-name="uni2198" unicode="&#x2198;" horiz-adv-x="629" 
d="M60 382l106 106l389 -389l-106 -106zM423 380h146v-400l-144 37zM169 126l363 -2l37 -144h-400v146z" />
    <glyph glyph-name="arrowdown" unicode="&#x2193;" horiz-adv-x="764" 
d="M465 124l-80 -136l-295 269l106 108zM459 700v-619h-150v619h150zM674 263l-289 -275l-84 135l266 246z" />
    <glyph glyph-name="uni2199" unicode="&#x2199;" horiz-adv-x="628" 
d="M462 509l106 -106l-389 -389l-106 106zM460 146v-146h-400l37 144zM206 400l-2 -363l-144 -37v400h146z" />
    <glyph glyph-name="arrowleft" unicode="&#x2190;" horiz-adv-x="758" 
d="M191 217l-136 80l269 295l108 -106zM698 223h-550v150h550v-150zM330 8l-275 289l135 84l246 -266z" />
    <glyph glyph-name="uni2196" unicode="&#x2196;" horiz-adv-x="629" 
d="M569 318l-106 -106l-389 389l106 106zM206 320h-146v400l144 -37zM460 574l-363 2l-37 144h400v-146z" />
    <glyph glyph-name="uni0308" unicode="&#x308;" horiz-adv-x="0" 
d="M415 569q-35 0 -61.5 26.5t-26.5 61.5t26.5 61.5t61.5 26.5t61.5 -26.5t26.5 -61.5t-26.5 -61.5t-61.5 -26.5zM145 569q-36 0 -62 26t-26 62t26 62t62 26t62 -26t26 -62t-26 -62t-62 -26z" />
    <glyph glyph-name="uni0307" unicode="&#x307;" horiz-adv-x="0" 
d="M100 548q-40 0 -70 30t-30 70q0 41 30 70.5t70 29.5q41 0 70.5 -29.5t29.5 -70.5q0 -40 -29.5 -70t-70.5 -30z" />
    <glyph glyph-name="gravecomb" unicode="&#x300;" horiz-adv-x="0" 
d="M170 554l-132 147h190l112 -147h-170z" />
    <glyph glyph-name="acutecomb" unicode="&#x301;" horiz-adv-x="0" 
d="M249 554l110 146h190l-130 -146h-170z" />
    <glyph glyph-name="uni030B" unicode="&#x30b;" horiz-adv-x="0" 
d="M234 554l100 146h170l-122 -146h-148zM4 554l96 146h170l-120 -146h-146z" />
    <glyph glyph-name="uni030C.alt" horiz-adv-x="0" 
d="M15 552l23 148h150l-43 -148h-130z" />
    <glyph glyph-name="uni0302" unicode="&#x302;" horiz-adv-x="0" 
d="M285 565l-147 134v13h170l127 -147h-150zM10 565l127 147h170v-13l-147 -134h-150z" />
    <glyph glyph-name="uni030C" unicode="&#x30c;" horiz-adv-x="0" 
d="M138 554v5l137 141h150l-127 -146h-160zM127 554l-127 146h150l137 -141v-5h-160z" />
    <glyph glyph-name="uni0306" unicode="&#x306;" horiz-adv-x="0" 
d="M203 542q-59 0 -105 20t-72 56t-26 82h164q0 -17 11 -28t28 -11t27.5 11t10.5 28h164q0 -46 -26 -82t-71.5 -56t-104.5 -20z" />
    <glyph glyph-name="uni030A" unicode="&#x30a;" horiz-adv-x="0" 
d="M178 520q-37 0 -68.5 17.5t-50.5 46.5t-19 65q0 37 19 66t50.5 46.5t68.5 17.5t68 -17.5t50 -46.5t19 -66q0 -36 -19 -65t-50 -46.5t-68 -17.5zM178 616q32 0 32 33q0 34 -32 34q-33 0 -33 -34q0 -33 33 -33z" />
    <glyph glyph-name="tildecomb" unicode="&#x303;" horiz-adv-x="0" 
d="M351 534q-38 0 -58.5 11t-31.5 25t-21 25t-27 11q-7 0 -16 -6.5t-15 -32.5h-111q6 53 22.5 85t45 46t68.5 14q41 0 63.5 -11t34.5 -25t21 -25t24 -11q14 0 19 11.5t7 27.5h111q-9 -70 -40.5 -107.5t-95.5 -37.5z" />
    <glyph glyph-name="uni0304" unicode="&#x304;" horiz-adv-x="0" 
d="M-20 549v151h340v-151h-340z" />
    <glyph glyph-name="uni0312" unicode="&#x312;" horiz-adv-x="0" 
d="M246 713l-66 -149h-180l116 149h130z" />
    <glyph glyph-name="uni0326" unicode="&#x326;" horiz-adv-x="0" 
d="M26 -200l46 160h168l-84 -160h-130z" />
    <glyph glyph-name="uni0327" unicode="&#x327;" horiz-adv-x="0" 
d="M256 -210q-24 0 -49.5 8.5t-46.5 22.5l21 76q14 -7 26.5 -10.5t20.5 -3.5q17 0 27 5t10 14q0 14 -14.5 21.5t-40.5 7.5l30 75h97l-15 -32q34 -11 53 -33t19 -49q0 -48 -36.5 -75t-101.5 -27z" />
    <glyph glyph-name="uni0328" unicode="&#x328;" horiz-adv-x="0" 
d="M176 -212q-42 0 -77.5 14t-57 41.5t-21.5 68.5q0 29 17 52.5t40 35.5h138q-27 -17 -41.5 -37.5t-14.5 -37.5q0 -8 5 -14t13 -6t14 2t11 5l52 -108q-15 -9 -34 -12.5t-44 -3.5z" />
    <glyph glyph-name="uni0328.alt" horiz-adv-x="0" 
d="M196 -212q-47 0 -87.5 12t-64.5 36t-24 60t22.5 63t60.5 50.5t83 50.5h30q-31 -31 -45 -52.5t-17.5 -38t-3.5 -32.5q0 -15 9 -24t25 -9q13 0 21.5 2t16.5 5l52 -107q-15 -9 -34 -12.5t-44 -3.5z" />
    <glyph glyph-name="uni0304.narrow" horiz-adv-x="0" 
d="M0 549v151h300v-151h-300z" />
    <glyph glyph-name="dieresis" unicode="&#xa8;" horiz-adv-x="526" 
d="M398 569q-35 0 -61.5 26.5t-26.5 61.5t26.5 61.5t61.5 26.5t61.5 -26.5t26.5 -61.5t-26.5 -61.5t-61.5 -26.5zM128 569q-36 0 -62 26t-26 62t26 62t62 26t62 -26t26 -62t-26 -62t-62 -26z" />
    <glyph glyph-name="dotaccent" unicode="&#x2d9;" horiz-adv-x="200" 
d="M100 548q-40 0 -70 30t-30 70q0 41 30 70.5t70 29.5q41 0 70.5 -29.5t29.5 -70.5q0 -40 -29.5 -70t-70.5 -30z" />
    <glyph glyph-name="grave" unicode="`" horiz-adv-x="302" 
d="M132 554l-132 147h190l112 -147h-170z" />
    <glyph glyph-name="acute" unicode="&#xb4;" horiz-adv-x="302" 
d="M2 554l110 146h190l-130 -146h-170z" />
    <glyph glyph-name="hungarumlaut" unicode="&#x2dd;" horiz-adv-x="524" 
d="M244 554l100 146h170l-122 -146h-148zM14 554l96 146h170l-120 -146h-146z" />
    <glyph glyph-name="circumflex" unicode="&#x2c6;" horiz-adv-x="445" 
d="M285 565l-147 134v13h170l127 -147h-150zM10 565l127 147h170v-13l-147 -134h-150z" />
    <glyph glyph-name="caron" unicode="&#x2c7;" horiz-adv-x="445" 
d="M138 554v5l137 141h150l-127 -146h-160zM127 554l-127 146h150l137 -141v-5h-160z" />
    <glyph glyph-name="breve" unicode="&#x2d8;" horiz-adv-x="405" 
d="M203 542q-59 0 -105 20t-72 56t-26 82h164q0 -17 11 -28t28 -11t27.5 11t10.5 28h164q0 -46 -26 -82t-71.5 -56t-104.5 -20z" />
    <glyph glyph-name="ring" unicode="&#x2da;" horiz-adv-x="600" 
d="M332 520q-37 0 -68.5 17.5t-50.5 46.5t-19 65q0 37 19 66t50.5 46.5t68.5 17.5t68 -17.5t50 -46.5t19 -66q0 -36 -19 -65t-50 -46.5t-68 -17.5zM332 616q32 0 32 33q0 34 -32 34q-33 0 -33 -34q0 -33 33 -33z" />
    <glyph glyph-name="tilde" unicode="&#x2dc;" horiz-adv-x="436" 
d="M290 534q-38 0 -58.5 11t-31.5 25t-21 25t-27 11q-7 0 -16 -6.5t-15 -32.5h-111q6 53 22.5 85t45 46t68.5 14q41 0 63.5 -11t34.5 -25t21 -25t24 -11q14 0 19 11.5t7 27.5h111q-9 -70 -40.5 -107.5t-95.5 -37.5z" />
    <glyph glyph-name="macron" unicode="&#xaf;" horiz-adv-x="300" 
d="M-20 549v151h340v-151h-340z" />
    <glyph glyph-name="cedilla" unicode="&#xb8;" horiz-adv-x="254" 
d="M106 -210q-24 0 -49.5 8.5t-46.5 22.5l21 76q14 -7 26.5 -10.5t20.5 -3.5q17 0 27 5t10 14q0 14 -14.5 21.5t-40.5 7.5l30 75h97l-15 -32q34 -11 53 -33t19 -49q0 -48 -36.5 -75t-101.5 -27z" />
    <glyph glyph-name="ogonek" unicode="&#x2db;" horiz-adv-x="254" 
d="M176 -212q-42 0 -77.5 14t-57 41.5t-21.5 68.5q0 29 17 52.5t40 35.5h138q-27 -17 -41.5 -37.5t-14.5 -37.5q0 -8 5 -14t13 -6t14 2t11 5l52 -108q-15 -9 -34 -12.5t-44 -3.5z" />
    <glyph glyph-name="dollar.BRACKET.varAlt01" horiz-adv-x="546" 
d="M277 24q-59 0 -113 21t-90.5 56t-43.5 76l166 46q8 -22 27.5 -38t51.5 -18q25 -1 44.5 13.5t19.5 38.5q0 15 -11.5 29t-35.5 20l-95 24q-49 13 -83.5 39t-52.5 64t-18 85q0 92 61.5 144t172.5 52q59 0 104.5 -15t79 -48t54.5 -87l-165 -47q-4 17 -22.5 35.5t-50.5 18.5
q-30 0 -46.5 -13.5t-16.5 -39.5q0 -16 13.5 -28t38.5 -19l95 -25q72 -19 112.5 -70.5t40.5 -119.5q0 -62 -28.5 -105.5t-81.5 -66t-127 -22.5zM208 -103v197h144v-197h-144zM208 583v197h144v-197h-144z" />
    </font>
</defs>
</svg>
