<?xml version="1.0" standalone="no"?>
<!DOCTYPE svg PUBLIC "-//W3C//DTD SVG 1.1//EN" "http://www.w3.org/Graphics/SVG/1.1/DTD/svg11.dtd" >
<svg xmlns="http://www.w3.org/2000/svg" xmlns:xlink="http://www.w3.org/1999/xlink" version="1.1">
<metadata>
Created by FontForge 20190801 at Wed Apr 21 10:48:54 2021
 By root
</metadata>
<defs>
<font id="Mortend-Bold" horiz-adv-x="1009" >
  <font-face 
    font-family="Mortend"
    font-weight="700"
    font-stretch="normal"
    units-per-em="1000"
    panose-1="0 0 0 0 0 0 0 0 0 0"
    ascent="750"
    descent="-250"
    x-height="715"
    cap-height="715"
    bbox="-80 -403 3365 876"
    underline-thickness="50"
    underline-position="-175"
    unicode-range="U+000D-2122"
  />
<missing-glyph horiz-adv-x="250" 
 />
    <glyph glyph-name=".notdef" horiz-adv-x="250" 
 />
    <glyph glyph-name=".null" horiz-adv-x="0" 
 />
    <glyph glyph-name=".null" horiz-adv-x="0" 
 />
    <glyph glyph-name="uni000D" unicode="&#xd;" horiz-adv-x="250" 
 />
    <glyph glyph-name="space" unicode=" " horiz-adv-x="350" 
 />
    <glyph glyph-name="exclam" unicode="!" horiz-adv-x="326" 
d="M50 715h226l-39 -465h-149zM163 201q22 0 41 -8t33.5 -22.5t22.5 -33.5t8 -41t-8 -41t-22.5 -33.5t-33.5 -23t-41 -8.5t-41 8.5t-33 23t-22.5 33.5t-8.5 41t8.5 41t22.5 33.5t33 22.5t41 8z" />
    <glyph glyph-name="quotedbl" unicode="&#x22;" horiz-adv-x="453" 
d="M50 823h159l-27 -261h-104zM403 823l-27 -261h-105l-27 261h159z" />
    <glyph glyph-name="numbersign" unicode="#" horiz-adv-x="860" 
d="M686 421l-15 -127h108l-15 -132h-108l-19 -161h-144l19 161h-210l-19 -161h-144l19 161h-108l16 132h107l15 127h-108l16 132h108l19 162h143l-19 -162h211l19 162h144l-19 -162h108l-16 -132h-108zM543 421h-211l-15 -127h211z" />
    <glyph glyph-name="dollar" unicode="$" horiz-adv-x="794" 
d="M461 496q52 -3 102.5 -12t90.5 -29.5t65 -55.5t25 -92q0 -26 -8 -58.5t-37 -61.5t-85.5 -49t-152.5 -21v-117h-127v117q-96 1 -152.5 25t-85.5 58t-37 70.5t-8 62.5h164q0 -7 3 -17.5t11.5 -20t25 -16.5t43.5 -7h36v84q-52 3 -102.5 11.5t-91 28.5t-65.5 55.5t-25 92.5
q0 26 8 58.5t37 61t85.5 48.5t153.5 21v117h127v-117q64 -1 110 -12.5t77 -29.5t50 -41t29 -46.5t13 -46t3 -39.5h-164q0 7 -3 17t-11.5 19.5t-25 16.5t-43.5 7h-35v-82zM214 544q0 -24 33.5 -32t86.5 -11v77h-63q-36 0 -46.5 -10t-10.5 -24zM523 272q35 0 46 10.5t11 24.5
q0 25 -33 33.5t-86 11.5v-80h62z" />
    <glyph glyph-name="percent" unicode="%" horiz-adv-x="1481" 
d="M1008 715l-415 -714h-120l414 714h121zM341 258q-58 0 -111 11.5t-93 38.5t-63.5 70.5t-23.5 107.5q0 66 24.5 110t65.5 70.5t93.5 37.5t107.5 11q59 0 111.5 -12t92 -39t63 -70.5t23.5 -107.5q0 -66 -24.5 -109.5t-65 -70t-92.5 -37.5t-108 -11zM488 486q0 32 -13.5 50
t-34.5 28t-47 12.5t-52 2.5t-52.5 -2.5t-47.5 -12t-34 -28t-13 -50.5t13 -50.5t34 -27.5t47.5 -11.5t52.5 -2.5t52 2.5t47 12t34.5 28t13.5 49.5zM1431 229q0 -66 -25 -109.5t-65.5 -70t-93 -37.5t-107.5 -11q-58 0 -111 11.5t-93 38.5t-63.5 70.5t-23.5 107.5
q0 66 24.5 110t65.5 70t93.5 37t107.5 11q56 0 108 -11t93 -37t65.5 -70t24.5 -110zM1287 229q0 32 -13.5 50t-34.5 28t-47 12.5t-52 2.5t-52.5 -2.5t-47.5 -12t-34 -28t-13 -50.5q0 -29 7.5 -42.5t15.5 -20.5q36 -30 124 -30q26 0 52 2.5t47 12.5t34.5 28.5t13.5 49.5z" />
    <glyph glyph-name="ampersand" unicode="&#x26;" horiz-adv-x="1035" 
d="M985 423v-131h-103v-46q0 -27 16.5 -47.5t58.5 -20.5v-177q-153 0 -218 81q-64 -81 -219 -81h-235q-47 0 -89.5 11t-75 35t-51.5 62.5t-19 94.5q0 41 17 81.5t55 72.5q-38 32 -55 72t-17 82q0 56 19 94.5t51.5 62.5t75 35t89.5 11h597v-177h-581q-27 0 -44.5 -15.5
t-17.5 -41.5q0 -29 17.5 -43.5t48.5 -14.5h680zM618 178q42 0 58.5 20.5t16.5 47.5v46h-388q-31 0 -48.5 -14t-17.5 -43q0 -27 17.5 -42t44.5 -15h317z" />
    <glyph glyph-name="quotesingle" unicode="'" horiz-adv-x="259" 
d="M50 823h159l-28 -261h-104z" />
    <glyph glyph-name="parenleft" unicode="(" horiz-adv-x="471" 
d="M50 358q0 393 371 393v-131q-37 0 -68 -13.5t-54 -44t-36 -80.5t-13 -124t13 -124t36 -81t54 -44t68 -13v-131q-371 0 -371 393z" />
    <glyph glyph-name="parenright" unicode=")" horiz-adv-x="471" 
d="M50 751q371 0 371 -393t-371 -393v131q37 0 68 13t54 44t36 81t13 124t-13 124t-36 80.5t-54 44t-68 13.5v131z" />
    <glyph glyph-name="asterisk" unicode="*" horiz-adv-x="649" 
d="M599 598l-204 -27l149 -142l-131 -95l-88 186l-89 -186l-131 95l149 142l-204 27l50 154l181 -98l-37 202h162l-38 -202l181 98z" />
    <glyph glyph-name="plus" unicode="+" horiz-adv-x="594" 
d="M3213 415h152v-110h-152v-152h-111v152h-152v110h152v153h111v-153z" />
    <glyph glyph-name="comma" unicode="," horiz-adv-x="365" 
d="M116 190h199l-133 -298h-132z" />
    <glyph glyph-name="hyphen" unicode="-" horiz-adv-x="490" 
d="M50 418h390v-115h-390v115z" />
    <glyph glyph-name="period" unicode="." horiz-adv-x="311" 
d="M155 201q22 0 41 -8t33.5 -22.5t23 -33.5t8.5 -41t-8.5 -41t-23 -33.5t-33.5 -23t-41 -8.5t-41 8.5t-33 23t-22.5 33.5t-8.5 41t8.5 41t22.5 33.5t33 22.5t41 8z" />
    <glyph glyph-name="slash" unicode="/" horiz-adv-x="636" 
d="M465 715h121l-415 -714h-121z" />
    <glyph glyph-name="zero" unicode="0" 
d="M959 358q0 -103 -38.5 -171.5t-102.5 -110t-145.5 -58.5t-168.5 -17q-91 0 -173.5 18.5t-144.5 60.5t-99 110t-37 168q0 103 38.5 171.5t102 110t145 58.5t168.5 17q89 0 171 -18t145 -59.5t101 -110t38 -169.5zM727 244q7 6 14.5 15t14 22.5t10.5 32t4 44.5t-4 44.5
t-10.5 32t-14 22t-14.5 14.5q-31 27 -87.5 40.5t-135.5 13.5q-78 0 -134.5 -13.5t-87.5 -40.5q-14 -11 -28.5 -36t-14.5 -77t14.5 -77t28.5 -37q31 -26 87.5 -40t134.5 -14q160 0 223 54z" />
    <glyph glyph-name="one" unicode="1" horiz-adv-x="449" 
d="M305 715h94v-714h-189v508l-160 -78v160z" />
    <glyph glyph-name="two" unicode="2" horiz-adv-x="820" 
d="M770 488q0 -51 -18.5 -86.5t-50 -60.5t-73 -41t-86 -27.5t-90.5 -20.5t-86.5 -19.5t-72.5 -25t-50 -37.5h481v-169h-674v81q0 70 22.5 119.5t59 83.5t83.5 56t95.5 36t95.5 23.5t83.5 19t59 22t22.5 32.5q0 16 -10 27.5t-28 19t-42 11t-52 3.5q-43 0 -77.5 -8t-60.5 -21
t-44 -30t-30 -35l-163 78q28 59 76.5 96.5t102.5 59t107.5 30t92.5 9.5q81 0 142 -16.5t102 -46.5t62 -71.5t21 -91.5z" />
    <glyph glyph-name="three" unicode="3" horiz-adv-x="903" 
d="M853 495q0 -41 -19.5 -77t-67.5 -60q48 -24 67.5 -60t19.5 -78q0 -20 -3.5 -44t-15.5 -48.5t-34.5 -47.5t-60 -40.5t-92 -28t-131.5 -10.5h-127q-77 0 -132 13t-92.5 33.5t-60 47.5t-34.5 54.5t-15.5 54t-3.5 46.5h190q0 -8 3 -20t13.5 -23t29.5 -19t50 -8h260q20 0 33 5
t20.5 13t10.5 17.5t3 19.5q0 23 -17.5 39.5t-64.5 16.5h-272v134h272q47 0 64.5 16.5t17.5 38.5q0 10 -3 20t-10.5 17.5t-20.5 12.5t-33 5h-291q-42 0 -54.5 -14t-12.5 -46h-189q0 38 9.5 80.5t44 78t101.5 58.5t182 23h129q77 0 131.5 -10.5t92 -28t60 -40.5t34.5 -47.5
t15.5 -49t3.5 -44.5z" />
    <glyph glyph-name="four" unicode="4" horiz-adv-x="888" 
d="M741 306h97v-170h-97v-135h-190v135h-501v101l405 478h286v-409zM551 566l-215 -260h215v260z" />
    <glyph glyph-name="five" unicode="5" horiz-adv-x="904" 
d="M588 455q72 0 123 -18t82.5 -48.5t46 -70t14.5 -81.5q0 -20 -3.5 -45.5t-15.5 -51.5t-34.5 -51t-60 -44.5t-92.5 -31.5t-132 -12h-127q-77 0 -131.5 13t-92 34t-60 48.5t-34.5 56t-15.5 56.5t-3.5 51h189q0 -12 3.5 -26t13.5 -26t29.5 -20t50.5 -8h250q40 0 58 19t18 47
q0 11 -4 24t-13.5 24.5t-25.5 19t-39 7.5h-532l78 394h666v-180h-512l-16 -80h322z" />
    <glyph glyph-name="six" unicode="6" horiz-adv-x="902" 
d="M360 535q-54 0 -87.5 -30t-33.5 -85v-11q18 12 44 19t62 7h247q72 0 122 -16t80.5 -43t44 -64t13.5 -79q0 -20 -3.5 -45.5t-15.5 -51t-34.5 -50t-60 -43.5t-92.5 -30.5t-131 -11.5h-128q-77 0 -131.5 13t-92 33.5t-60 47.5t-34.5 54.5t-15.5 54t-3.5 46.5v193
q0 21 3.5 49t15.5 58t34.5 59.5t60 53t92 38t131.5 14.5h128q77 0 131.5 -13t92 -34t60 -47.5t34.5 -54.5t15.5 -54t3.5 -47h-190q0 8 -3 20t-13.5 23t-29 19t-50.5 8h-206zM321 321q-35 0 -58.5 -15t-23.5 -56q0 -8 3.5 -20t13.5 -23t29.5 -19t50.5 -8h250q40 0 58 21.5
t18 52.5q0 11 -4 23t-13.5 22t-25.5 16t-39 6h-259z" />
    <glyph glyph-name="seven" unicode="7" horiz-adv-x="844" 
d="M50 715h744v-180l-381 -534h-249l410 534h-524v180z" />
    <glyph glyph-name="eight" unicode="8" horiz-adv-x="905" 
d="M855 495q0 -41 -19.5 -77t-67.5 -60q48 -24 67.5 -60t19.5 -78q0 -20 -3.5 -44t-15.5 -48.5t-34.5 -47.5t-60 -40.5t-92.5 -28t-131 -10.5h-131q-77 0 -131.5 10.5t-92 28t-60 40.5t-34.5 47.5t-15.5 48.5t-3.5 44q0 42 19.5 78t67.5 60q-48 24 -67.5 60t-19.5 77
q0 21 3.5 45t15.5 48.5t34.5 47.5t60 40.5t92 28t131.5 10.5h131q115 0 182 -23t101.5 -56.5t44 -71.5t9.5 -69zM584 425q47 0 64.5 16.5t17.5 38.5q0 20 -13.5 37.5t-53.5 17.5h-293q-40 0 -53.5 -17.5t-13.5 -37.5q0 -22 17.5 -38.5t64.5 -16.5h263zM599 180q20 0 33 5
t20.5 13t10.5 17.5t3 19.5q0 23 -17.5 39.5t-64.5 16.5h-263q-47 0 -64.5 -16.5t-17.5 -39.5q0 -10 3 -19.5t10.5 -17.5t20.5 -13t33 -5h293z" />
    <glyph glyph-name="nine" unicode="9" horiz-adv-x="902" 
d="M542 181q54 0 87.5 30t33.5 85v11q-18 -12 -44 -19t-62 -7h-247q-72 0 -122 16t-80.5 43t-44 64t-13.5 79q0 21 3.5 46t15.5 50.5t34.5 50t60 43.5t92.5 30.5t131 11.5h128q77 0 131.5 -13t92 -33.5t60 -47.5t34.5 -54.5t15.5 -54t3.5 -46.5v-193q0 -20 -3.5 -48.5
t-15.5 -58.5t-34.5 -59.5t-60 -53t-92 -38t-131.5 -14.5h-128q-76 0 -131 13t-92.5 34t-60 47.5t-34.5 54.5t-15.5 54.5t-3.5 46.5h190q0 -8 3 -20t13.5 -23t29.5 -19t50 -8h206zM581 395q35 0 58.5 15t23.5 56q0 8 -3.5 20t-13.5 23t-29 19t-51 8h-250q-40 0 -58 -21.5
t-18 -52.5q0 -11 4 -23t13.5 -21.5t25.5 -16t39 -6.5h259z" />
    <glyph glyph-name="colon" unicode=":" horiz-adv-x="311" 
d="M155 676q22 0 41.5 -8.5t33.5 -23t22.5 -33.5t8.5 -41t-8.5 -41t-22.5 -33t-33.5 -22.5t-41.5 -8.5t-41 8.5t-33 22.5t-22.5 33t-8.5 41t8.5 41t22.5 33.5t33 23t41 8.5zM155 201q22 0 41.5 -8t33.5 -22.5t22.5 -33.5t8.5 -41t-8.5 -41t-22.5 -33.5t-33.5 -23t-41.5 -8.5
t-41 8.5t-33 23t-22.5 33.5t-8.5 41t8.5 41t22.5 33.5t33 22.5t41 8z" />
    <glyph glyph-name="semicolon" unicode=";" horiz-adv-x="365" 
d="M182 465q-22 0 -41 8.5t-33 22.5t-22.5 33t-8.5 41t8.5 41t22.5 33.5t33 23t41 8.5t41.5 -8.5t33.5 -23t22.5 -33.5t8.5 -41t-8.5 -41t-22.5 -33t-33.5 -22.5t-41.5 -8.5zM115 190h200l-134 -298h-131z" />
    <glyph glyph-name="less" unicode="&#x3c;" horiz-adv-x="627" 
d="M50 422l527 248v-147l-381 -169l381 -170v-147l-527 248v137z" />
    <glyph glyph-name="equal" unicode="=" horiz-adv-x="605" 
d="M50 503h505v-110h-505v110zM50 327h505v-110h-505v110z" />
    <glyph glyph-name="greater" unicode="&#x3e;" horiz-adv-x="627" 
d="M50 670l527 -248v-137l-527 -248v147l382 170l-382 169v147z" />
    <glyph glyph-name="question" unicode="?" horiz-adv-x="980" 
d="M648 715q85 0 139.5 -20.5t86 -53t44 -73t12.5 -80.5q0 -63 -22 -108t-64 -74t-102.5 -42.5t-136.5 -13.5h-385v190h435q36 0 60.5 9t24.5 32q0 16 -12.5 30t-53.5 14h-624v190h598zM280 201q22 0 41 -8t33.5 -22.5t22.5 -33.5t8 -41t-8 -41t-22.5 -33.5t-33.5 -23
t-41 -8.5t-41 8.5t-33.5 23t-23 33.5t-8.5 41t8.5 41t23 33.5t33.5 22.5t41 8z" />
    <glyph glyph-name="at" unicode="@" horiz-adv-x="1093" 
d="M724 715q86 0 147 -25t99 -65.5t55.5 -92t16.5 -106t-19 -106t-51 -92t-79 -65.5t-102 -25q-65 0 -96.5 24t-40.5 69q-18 -16 -38.5 -27t-41.5 -17.5t-40.5 -9.5t-34.5 -3h-23q-26 0 -60 8.5t-63.5 29.5t-48 56.5t-13.5 89.5t29.5 89.5t57.5 56.5t68.5 29.5t61.5 8.5h23
q29 0 68 -11t69 -39l5 50h120l-22 -246q-2 -20 4.5 -29t26.5 -9q29 0 55 25t42 62.5t17.5 81t-18 81t-64 62.5t-121.5 25h-263q-81 0 -138.5 -35t-88.5 -88t-34.5 -114t24 -114t86.5 -88t152 -35h185l-11 -120h-185q-102 0 -176.5 30.5t-122.5 81t-70.5 114.5t-20 131
t29 131t75.5 114.5t121 81t165 30.5h283zM657 358q3 41 -29.5 58.5t-97.5 17.5h-8q-45 0 -76.5 -17.5t-35.5 -58.5t24.5 -59t74.5 -18h7q65 0 101 17.5t40 59.5z" />
    <glyph glyph-name="A" unicode="A" horiz-adv-x="1049" 
d="M640 715l359 -714h-212l-73 155h-379l-73 -155h-212l360 714h230zM634 325l-109 233l-110 -233h219z" />
    <glyph glyph-name="B" unicode="B" 
d="M959 512q0 -42 -17 -82t-55 -72q38 -32 55 -72.5t17 -81.5q0 -56 -19 -94.5t-51 -62.5t-75 -35t-90 -11h-674v714h674q47 0 90 -11t75 -35t51 -62.5t19 -94.5zM704 423q31 0 48.5 14.5t17.5 43.5q0 26 -17.5 41.5t-44.5 15.5h-469v-115h465zM239 292v-114h469
q27 0 44.5 15t17.5 42q0 29 -17.5 43t-48.5 14h-465z" />
    <glyph glyph-name="C" unicode="C" horiz-adv-x="1006" 
d="M375 535q-38 0 -62 -15t-38 -39.5t-19.5 -56.5t-5.5 -66t5.5 -66t19.5 -57t38 -40t62 -15h260q57 0 83 28t37 85h201q-8 -67 -30.5 -114.5t-54 -80t-69 -51.5t-76.5 -29.5t-76 -13.5t-67 -3h-156q-32 0 -72.5 3.5t-82.5 16t-81.5 36t-71 63t-50.5 98t-19 140.5t19 140.5
t50.5 98t71 63t81.5 36t82.5 16t72.5 3.5h156q30 0 67 -3t76 -13.5t76.5 -29.5t69 -51.5t54 -80t30.5 -114.5h-201q-7 52 -35 82t-85 30h-260z" />
    <glyph glyph-name="D" unicode="D" horiz-adv-x="1010" 
d="M960 358q0 -82 -19 -140.5t-50.5 -98t-71 -63t-81.5 -36t-82.5 -16t-72.5 -3.5h-533v714h533q32 0 72.5 -3.5t82.5 -16t81.5 -36t71 -63t50.5 -98t19 -140.5zM635 180q38 0 62 15t38 40t19.5 57t5.5 66t-5.5 66t-19.5 56.5t-38 39.5t-62 15h-395v-355h395z" />
    <glyph glyph-name="E" unicode="E" horiz-adv-x="877" 
d="M827 715v-177h-588v-99h588v-167h-588v-94h588v-177h-777v714h777z" />
    <glyph glyph-name="F" unicode="F" horiz-adv-x="877" 
d="M827 715v-177h-587v-99h587v-187h-587v-251h-190v714h777z" />
    <glyph glyph-name="G" unicode="G" horiz-adv-x="1003" 
d="M375 535q-38 0 -62.5 -15t-38.5 -39.5t-19.5 -56.5t-5.5 -66t5.5 -66t19.5 -57t38.5 -40t62.5 -15h264q47 0 76.5 24t36.5 59h-343v132h544v-394h-136l-23 52q-29 -17 -60 -27t-61.5 -15.5t-58.5 -7.5t-52 -2h-135q-32 0 -72.5 3.5t-82.5 16t-82 36t-71 63t-50 98
t-19 140.5t19 140.5t50 98t71 63t82 36t82.5 16t72.5 3.5h155q29 0 65.5 -3t74 -12.5t75 -27.5t69 -48.5t54.5 -75t33 -106.5h-203q-8 43 -36 68t-79 25h-260z" />
    <glyph glyph-name="H" unicode="H" 
d="M770 715h189v-714h-189v273h-531v-273h-189v714h189v-274h531v274z" />
    <glyph glyph-name="I" unicode="I" horiz-adv-x="289" 
d="M50 715h189v-714h-189v714z" />
    <glyph glyph-name="J" unicode="J" horiz-adv-x="944" 
d="M695 715h199v-357q0 -82 -19 -140.5t-50 -98t-71 -63t-82 -36t-82.5 -16t-72.5 -3.5h-90q-32 0 -72.5 3.5t-82.5 16t-81.5 36t-71 63t-50.5 98t-19 140.5h200q0 -34 5.5 -66t19.5 -57t38 -40t62 -15h194q38 0 62.5 13.5t38.5 36.5t19.5 53.5t5.5 64.5v367z" />
    <glyph glyph-name="K" unicode="K" horiz-adv-x="959" 
d="M909 715l-308 -357l308 -357h-249l-224 268h-197v-268h-189v714h189v-268h197l224 268h249z" />
    <glyph glyph-name="L" unicode="L" horiz-adv-x="877" 
d="M827 178v-177h-777v714h190v-537h587z" />
    <glyph glyph-name="M" unicode="M" horiz-adv-x="1212" 
d="M854 715h308v-714h-190v517l-245 -517h-243l-245 517v-517h-189v714h307l249 -512z" />
    <glyph glyph-name="N" unicode="N" 
d="M770 715h189v-714h-280l-440 509v-509h-189v714h280l440 -509v509z" />
    <glyph glyph-name="O" unicode="O" 
d="M582 715q32 0 72.5 -3.5t82.5 -16t82 -36t71 -63t50 -98t19 -140.5t-19 -140.5t-50 -98t-71 -63t-82 -36t-82.5 -16t-72.5 -3.5h-155q-32 0 -72.5 3.5t-82.5 16t-82 36t-71 63t-50 98t-19 140.5t19 140.5t50 98t71 63t82 36t82.5 16t72.5 3.5h155zM634 180q38 0 62.5 15
t38.5 40t19.5 57t5.5 66t-5.5 66t-19.5 56.5t-38.5 39.5t-62.5 15h-259q-38 0 -62.5 -15t-38.5 -39.5t-19.5 -56.5t-5.5 -66t5.5 -66t19.5 -57t38.5 -40t62.5 -15h259z" />
    <glyph glyph-name="P" unicode="P" horiz-adv-x="952" 
d="M561 715q32 0 70 -2.5t76 -11.5t73 -26.5t62 -47.5t43.5 -73.5t16.5 -105.5t-16.5 -105.5t-43.5 -73.5t-62 -47.5t-73 -26.5t-76 -11.5t-70 -2.5h-321v-180h-190v714h511zM577 360q38 0 62.5 6t38.5 17t19.5 27.5t5.5 37.5t-5.5 37t-19.5 27.5t-38.5 17t-62.5 5.5h-337
v-175h337z" />
    <glyph glyph-name="Q" unicode="Q" 
d="M959 358q0 -94 -24.5 -157t-63 -102.5t-86.5 -60t-95 -28.5q17 -6 38.5 -8.5t49.5 -2.5h181v-170h-99q-94 0 -157 15t-102.5 39.5t-59.5 55t-28 62.5h-87q-32 0 -72.5 3.5t-82 16t-81.5 36t-71 63t-50 98t-19 140.5t19 140.5t50 98t71 63t81.5 36t82 16t72.5 3.5h156
q32 0 72.5 -3.5t82.5 -16t82 -36t71 -63t50 -98t19 -140.5zM634 180q38 0 62.5 15t38.5 40t19.5 57t5.5 66t-5.5 66t-19.5 56.5t-38.5 39.5t-62.5 15h-260q-38 0 -62 -15t-38 -39.5t-19.5 -56.5t-5.5 -66t5.5 -66t19.5 -57t38 -40t62 -15h260z" />
    <glyph glyph-name="R" unicode="R" horiz-adv-x="988" 
d="M902 448q0 -59 -15 -101.5t-40 -72t-57.5 -47.5t-68.5 -28l217 -198h-259l-188 180h-251v-180h-190v714h511q32 0 70 -2.5t76 -11.5t73 -26.5t62 -47.5t43.5 -73.5t16.5 -105.5zM240 360h337q38 0 62.5 6t38.5 17t19.5 27.5t5.5 37.5t-5.5 37t-19.5 27.5t-38.5 17
t-62.5 5.5h-337v-175z" />
    <glyph glyph-name="S" unicode="S" horiz-adv-x="905" 
d="M240 495q0 -22 26.5 -32t69.5 -14t98 -5t113 -5.5t113 -15.5t98 -35.5t69.5 -64.5t26.5 -103q0 -20 -3.5 -44t-15.5 -48.5t-34.5 -47.5t-60 -40.5t-92.5 -28t-131 -10.5h-128q-76 0 -131 13t-92.5 33.5t-60 47.5t-34.5 54.5t-15.5 54t-3.5 46.5h189q0 -8 3.5 -20
t13.5 -23t29.5 -19t50.5 -8h260q40 0 53.5 12t13.5 28q0 24 -26.5 35t-69.5 15t-98.5 4.5t-113 5t-113 15t-98.5 34t-69.5 63.5t-26.5 103q0 31 9.5 69t44 71.5t102 56.5t182.5 23h127q77 0 132 -13t92.5 -34t60 -47.5t34.5 -54.5t15.5 -54t3.5 -47h-190q0 8 -3 20t-13.5 23
t-29.5 19t-51 8h-260q-41 0 -53.5 -11.5t-12.5 -28.5z" />
    <glyph glyph-name="T" unicode="T" horiz-adv-x="819" 
d="M50 715h719v-180h-268v-534h-189v534h-262v180z" />
    <glyph glyph-name="U" unicode="U" horiz-adv-x="1010" 
d="M770 715h190v-357q0 -82 -19 -140.5t-50.5 -98t-71 -63t-81.5 -36t-82.5 -16t-72.5 -3.5h-156q-32 0 -72.5 3.5t-82.5 16t-81.5 36t-71 63t-50.5 98t-19 140.5v357h190v-357v0q0 -34 7 -66t22.5 -57t41.5 -40t64 -15h270q38 0 62 15t38 40t19.5 57t5.5 66v357z" />
    <glyph glyph-name="V" unicode="V" horiz-adv-x="1049" 
d="M787 715h212l-360 -714h-229l-360 714h212l263 -557z" />
    <glyph glyph-name="W" unicode="W" horiz-adv-x="1478" 
d="M1428 715l-290 -714h-230l-169 417l-169 -417h-230l-290 714h212l205 -504l180 504h184l180 -504l204 504h213z" />
    <glyph glyph-name="X" unicode="X" horiz-adv-x="1025" 
d="M975 715l-323 -357l323 -357h-258l-204 241l-204 -241h-259l323 357l-323 357h259l204 -241l204 241h258z" />
    <glyph glyph-name="Y" unicode="Y" horiz-adv-x="1015" 
d="M965 715l-363 -454v-260h-189v260l-363 454h243l214 -292l215 292h243z" />
    <glyph glyph-name="Z" unicode="Z" 
d="M959 522l-589 -342h589v-179h-909v193l588 341h-578v180h899v-193z" />
    <glyph glyph-name="bracketleft" unicode="[" horiz-adv-x="435" 
d="M385 751v-131h-135v-524h135v-131h-335v786h335z" />
    <glyph glyph-name="backslash" unicode="\" horiz-adv-x="467" 
d="M171 715l246 -714h-121l-246 714h121z" />
    <glyph glyph-name="bracketright" unicode="]" horiz-adv-x="435" 
d="M385 751v-786h-335v131h135v524h-135v131h335z" />
    <glyph glyph-name="asciicircum" unicode="^" horiz-adv-x="865" 
d="M509 856l306 -498h-175l-207 365l-208 -365h-175l307 498h152z" />
    <glyph glyph-name="underscore" unicode="_" horiz-adv-x="672" 
d="M50 1h572v-95h-572v95z" />
    <glyph glyph-name="grave" unicode="`" horiz-adv-x="454" 
d="M273 560l-223 227h216l138 -227h-131z" />
    <glyph glyph-name="a" unicode="a" 
d="M583 710q32 0 72.5 -3.5t82 -16t81.5 -35.5t71 -62.5t50 -98t19 -140.5v-353h-189v176h-531v-176h-189v353q0 82 19 140.5t50.5 98t71 62.5t81.5 35.5t82.5 16t72.5 3.5h156zM770 344v20q0 34 -5.5 64t-19.5 53t-38 36.5t-62 13.5h-280q-38 0 -62.5 -13.5t-38.5 -36.5
t-19.5 -53t-5.5 -64v-20h531z" />
    <glyph glyph-name="b" unicode="b" 
d="M959 512q0 -42 -17 -82t-55 -72q38 -32 55 -72.5t17 -81.5q0 -56 -19 -94.5t-51 -62.5t-75 -35t-90 -11h-674v714h674q47 0 90 -11t75 -35t51 -62.5t19 -94.5zM704 423q31 0 48.5 14.5t17.5 43.5q0 26 -17.5 41.5t-44.5 15.5h-469v-115h465zM239 292v-114h469
q27 0 44.5 15t17.5 42q0 29 -17.5 43t-48.5 14h-465z" />
    <glyph glyph-name="c" unicode="c" horiz-adv-x="1006" 
d="M375 535q-38 0 -62 -15t-38 -39.5t-19.5 -56.5t-5.5 -66t5.5 -66t19.5 -57t38 -40t62 -15h260q57 0 83 28t37 85h201q-8 -67 -30.5 -114.5t-54 -80t-69 -51.5t-76.5 -29.5t-76 -13.5t-67 -3h-156q-32 0 -72.5 3.5t-82.5 16t-81.5 36t-71 63t-50.5 98t-19 140.5t19 140.5
t50.5 98t71 63t81.5 36t82.5 16t72.5 3.5h156q30 0 67 -3t76 -13.5t76.5 -29.5t69 -51.5t54 -80t30.5 -114.5h-201q-7 52 -35 82t-85 30h-260z" />
    <glyph glyph-name="d" unicode="d" horiz-adv-x="1010" 
d="M960 358q0 -82 -19 -140.5t-50.5 -98t-71 -63t-81.5 -36t-82.5 -16t-72.5 -3.5h-533v714h533q32 0 72.5 -3.5t82.5 -16t81.5 -36t71 -63t50.5 -98t19 -140.5zM635 180q38 0 62 15t38 40t19.5 57t5.5 66t-5.5 66t-19.5 56.5t-38 39.5t-62 15h-395v-355h395z" />
    <glyph glyph-name="e" unicode="e" 
d="M636 715q66 0 124.5 -20.5t103 -63t70 -107.5t25.5 -154q0 -17 -0.5 -30.5t-0.5 -24.5q-1 -13 -2 -23h-701q5 -24 13.5 -44.5t22.5 -35.5t35 -23.5t49 -8.5h260q56 0 82 13.5t38 46.5h201q-8 -52 -31 -90t-54.5 -64.5t-69 -43t-76.5 -26t-75.5 -12.5t-66.5 -3h-156
q-32 0 -72.5 3.5t-82.5 16t-81.5 36t-71 63t-50.5 98t-19 140.5t19 140.5t50.5 98t71 63t81.5 36t82.5 16t72.5 3.5h209zM375 535q-28 0 -49 -8.5t-35 -23.5t-22.5 -35.5t-13.5 -44.5h500q-1 61 -32 86.5t-88 25.5h-260z" />
    <glyph glyph-name="f" unicode="f" horiz-adv-x="877" 
d="M827 715v-177h-587v-99h587v-187h-587v-251h-190v714h777z" />
    <glyph glyph-name="g" unicode="g" horiz-adv-x="1003" 
d="M375 535q-38 0 -62.5 -15t-38.5 -39.5t-19.5 -56.5t-5.5 -66t5.5 -66t19.5 -57t38.5 -40t62.5 -15h264q47 0 76.5 24t36.5 59h-343v132h544v-394h-136l-23 52q-29 -17 -60 -27t-61.5 -15.5t-58.5 -7.5t-52 -2h-135q-32 0 -72.5 3.5t-82.5 16t-82 36t-71 63t-50 98
t-19 140.5t19 140.5t50 98t71 63t82 36t82.5 16t72.5 3.5h155q29 0 65.5 -3t74 -12.5t75 -27.5t69 -48.5t54.5 -75t33 -106.5h-203q-8 43 -36 68t-79 25h-260z" />
    <glyph glyph-name="h" unicode="h" 
d="M770 715h189v-714h-189v273h-531v-273h-189v714h189v-274h531v274z" />
    <glyph glyph-name="i" unicode="i" horiz-adv-x="610" 
d="M50 140h160v435h-160v140h510v-140h-160v-435h160v-139h-510v139z" />
    <glyph glyph-name="j" unicode="j" horiz-adv-x="308" 
d="M58 715h200v-654q0 -166 -83 -256.5t-255 -90.5v184q52 0 80 15t41 38.5t15 52.5t2 57v654z" />
    <glyph glyph-name="k" unicode="k" horiz-adv-x="959" 
d="M909 715l-367 -297l367 -417h-269l-252 293l-149 -121v-172h-189v714h189v-308l381 308h289z" />
    <glyph glyph-name="l" unicode="l" horiz-adv-x="877" 
d="M827 178v-177h-777v714h190v-537h587z" />
    <glyph glyph-name="m" unicode="m" horiz-adv-x="1427" 
d="M1040 725q39 0 79.5 -4.5t78 -18t70 -38t57 -65.5t38.5 -100t14 -141v-357h-200v357q0 34 -3 66t-16.5 56.5t-40.5 39.5t-75 15h-29q-45 0 -83 -14t-65 -42t-42 -70t-15 -98v-310h-199v357q0 34 -3 66t-16.5 56.5t-41 39.5t-75.5 15h-49q-45 0 -80 -15t-58 -39.5
t-35 -56.5t-12 -66v-357h-189v714h189v-86q26 26 55.5 44.5t60 30t60 16.5t56.5 5q42 0 85 -5t82.5 -21t73 -45.5t56.5 -77.5q26 42 59.5 70.5t70 46t73.5 25t69 7.5z" />
    <glyph glyph-name="n" unicode="n" 
d="M568 725q39 0 83.5 -7.5t88 -24.5t83 -44.5t70 -68.5t48.5 -96t18 -126v-357h-199v337q0 105 -56 151t-172 46h-14q-80 0 -133.5 -27t-86 -68.5t-46 -92t-13.5 -97.5v-249h-189v714h189v-114q35 35 76.5 58.5t85.5 38t87 21t80 6.5z" />
    <glyph glyph-name="o" unicode="o" 
d="M582 715q32 0 72.5 -3.5t82.5 -16t82 -36t71 -63t50 -98t19 -140.5t-19 -140.5t-50 -98t-71 -63t-82 -36t-82.5 -16t-72.5 -3.5h-155q-32 0 -72.5 3.5t-82.5 16t-82 36t-71 63t-50 98t-19 140.5t19 140.5t50 98t71 63t82 36t82.5 16t72.5 3.5h155zM634 180q38 0 62.5 15
t38.5 40t19.5 57t5.5 66t-5.5 66t-19.5 56.5t-38.5 39.5t-62.5 15h-259q-38 0 -62.5 -15t-38.5 -39.5t-19.5 -56.5t-5.5 -66t5.5 -66t19.5 -57t38.5 -40t62.5 -15h259z" />
    <glyph glyph-name="p" unicode="p" horiz-adv-x="952" 
d="M561 715q32 0 70 -2.5t76 -11.5t73 -26.5t62 -47.5t43.5 -73.5t16.5 -105.5t-16.5 -105.5t-43.5 -73.5t-62 -47.5t-73 -26.5t-76 -11.5t-70 -2.5h-321v-180h-190v714h511zM577 360q38 0 62.5 6t38.5 17t19.5 27.5t5.5 37.5t-5.5 37t-19.5 27.5t-38.5 17t-62.5 5.5h-337
v-175h337z" />
    <glyph glyph-name="q" unicode="q" 
d="M959 358q0 -94 -24.5 -157t-63 -102.5t-86.5 -60t-95 -28.5q17 -6 38.5 -8.5t49.5 -2.5h181v-170h-99q-94 0 -157 15t-102.5 39.5t-59.5 55t-28 62.5h-87q-32 0 -72.5 3.5t-82 16t-81.5 36t-71 63t-50 98t-19 140.5t19 140.5t50 98t71 63t81.5 36t82 16t72.5 3.5h156
q32 0 72.5 -3.5t82.5 -16t82 -36t71 -63t50 -98t19 -140.5zM634 180q38 0 62.5 15t38.5 40t19.5 57t5.5 66t-5.5 66t-19.5 56.5t-38.5 39.5t-62.5 15h-260q-38 0 -62 -15t-38 -39.5t-19.5 -56.5t-5.5 -66t5.5 -66t19.5 -57t38 -40t62 -15h260z" />
    <glyph glyph-name="r" unicode="r" horiz-adv-x="952" 
d="M902 478q0 -51 -14.5 -89t-39.5 -65.5t-57.5 -45.5t-68 -28.5t-72 -14.5t-68.5 -4h-90q51 -17 136.5 -29t219.5 -12h54v-189q-71 0 -155 10t-164 35.5t-147 70.5t-104 114h-93v-230h-189v714h561q48 0 99.5 -10.5t94 -37t70 -72.5t27.5 -117zM239 391h350q58 0 85.5 20
t27.5 53q0 34 -19.5 52.5t-65.5 18.5h-378v-144z" />
    <glyph glyph-name="s" unicode="s" horiz-adv-x="904" 
d="M240 495q0 -22 26.5 -32t69.5 -14t98 -5t113 -5.5t113 -15.5t98 -35.5t69.5 -64.5t26.5 -103q0 -20 -3.5 -44t-15.5 -48.5t-34.5 -47.5t-60 -40.5t-92.5 -28t-131 -10.5h-128q-76 0 -131 13t-92.5 33.5t-60 47.5t-34.5 54.5t-15.5 54t-3.5 46.5h189q0 -8 3.5 -20
t13.5 -23t29.5 -19t50.5 -8h260q40 0 53.5 12t13.5 28q0 24 -26.5 35t-69.5 15t-98.5 4.5t-113 5t-113 15t-98.5 34t-69.5 63.5t-26.5 103q0 31 9.5 69t44 71.5t102 56.5t182.5 23h127q77 0 132 -13t92.5 -34t60 -47.5t34.5 -54.5t15.5 -54t3.5 -47h-190q0 8 -3 20t-13.5 23
t-29.5 19t-51 8h-260q-41 0 -53.5 -11.5t-12.5 -28.5z" />
    <glyph glyph-name="t" unicode="t" horiz-adv-x="819" 
d="M50 715h719v-180h-268v-534h-189v534h-262v180z" />
    <glyph glyph-name="u" unicode="u" 
d="M441 -9q-39 0 -83.5 7.5t-88 24.5t-83 44.5t-70 68.5t-48.5 96t-18 126v357h199v-337q0 -106 55.5 -152t172.5 -46h14q80 0 134 27t86 68.5t45.5 92t13.5 97.5v250h189v-714h-189v113q-34 -34 -76 -57.5t-86 -38t-87 -21t-80 -6.5z" />
    <glyph glyph-name="v" unicode="v" horiz-adv-x="1049" 
d="M787 715h212l-360 -714h-229l-360 714h212l263 -557z" />
    <glyph glyph-name="w" unicode="w" horiz-adv-x="1435" 
d="M1195 715h190v-357q0 -82 -19 -140.5t-50.5 -98t-71 -63t-81.5 -36t-82.5 -16t-72.5 -3.5h-9q-29 0 -65 3t-73.5 12t-74.5 27t-69 48q-31 -30 -68.5 -48t-75 -27t-73.5 -12t-65 -3h-8q-32 0 -72.5 3.5t-82.5 16t-82 36t-71 63t-50 98t-19 140.5v357h189v-367
q0 -34 5.5 -64.5t19.5 -53.5t38.5 -36.5t62.5 -13.5h132q38 0 62.5 13.5t38.5 36.5t19.5 53.5t5.5 64.5v367h189v-367q0 -34 5.5 -64.5t19.5 -53.5t38 -36.5t62 -13.5h133q38 0 62 13.5t38 36.5t19.5 53.5t5.5 64.5v367z" />
    <glyph glyph-name="x" unicode="x" horiz-adv-x="1025" 
d="M975 715l-323 -357l323 -357h-258l-204 241l-204 -241h-259l323 357l-323 357h259l204 -241l204 241h258z" />
    <glyph glyph-name="y" unicode="y" horiz-adv-x="1010" 
d="M770 715h190v-357q0 -82 -19 -140.5t-50.5 -98t-71 -63t-81.5 -36t-82.5 -16t-72.5 -3.5h-229q-63 0 -115 14t-91.5 40t-64.5 63t-33 83l190 53q5 -21 20 -37q12 -14 36.5 -25.5t66.5 -11.5h282q33 0 55.5 10t36.5 28t21.5 42.5t10.5 52.5q-50 -20 -99 -25.5t-87 -5.5
h-156q-32 0 -72.5 3.5t-82.5 16t-81.5 36t-71 63t-50.5 98t-19 140.5v76h190v-86q0 -34 5.5 -64t19.5 -53t38 -36.5t62 -13.5h280q38 0 62 13.5t38 36.5t19.5 53t5.5 64v86z" />
    <glyph glyph-name="z" unicode="z" 
d="M959 522l-589 -342h589v-179h-909v193l588 341h-578v180h899v-193z" />
    <glyph glyph-name="braceleft" unicode="{" horiz-adv-x="468" 
d="M108 516q-5 83 16 130t58.5 70.5t87 29t101.5 5.5h47v-131q-26 0 -51 -1t-44 -12t-29.5 -37t-7.5 -76q4 -62 -14.5 -99t-68.5 -37q50 0 68.5 -37t14.5 -99q-3 -51 7.5 -77t29.5 -37t44 -11.5t51 -0.5v-131h-47q-52 0 -101.5 5.5t-87 29t-58.5 70.5t-16 130q2 26 1.5 46.5
t-6 34.5t-18 22t-35.5 8v94q23 0 35.5 7.5t18 22t6 35t-1.5 46.5z" />
    <glyph glyph-name="bar" unicode="|" horiz-adv-x="227" 
d="M50 783h127v-850h-127v850z" />
    <glyph glyph-name="braceright" unicode="}" horiz-adv-x="469" 
d="M360 516q-1 -26 -1 -46.5t5.5 -35t18.5 -22t36 -7.5v-94q-23 0 -36 -8t-18.5 -22t-5.5 -34.5t1 -46.5q5 -83 -16 -130t-58 -70.5t-86.5 -29t-101.5 -5.5h-48v131q26 0 51.5 0.5t44.5 11.5t29.5 37t7.5 77q-4 62 14 99t68 37q-50 0 -68 37t-14 99q3 50 -7.5 76t-29.5 37
t-44.5 12t-51.5 1v131h48q52 0 101.5 -5.5t86.5 -29t58 -70.5t16 -130z" />
    <glyph glyph-name="asciitilde" unicode="~" horiz-adv-x="641" 
d="M460 378q32 0 56 8t41 18q20 11 34 26v-133q-13 -15 -33 -26q-17 -10 -43.5 -18t-63.5 -8q-42 0 -75 15.5t-62.5 33.5t-59.5 33.5t-67 15.5t-63 -10.5t-43 -23.5q-19 -15 -31 -34v133q12 19 31 34q17 12 43 22.5t63 10.5q45 0 78.5 -15t63.5 -33.5t60.5 -33.5t70.5 -15z
" />
    <glyph glyph-name="exclamdown" unicode="&#xa1;" horiz-adv-x="326" 
d="M163 454q-22 0 -41 8.5t-33 22.5t-22.5 33t-8.5 41t8.5 41t22.5 33.5t33 23t41 8.5t41 -8.5t33.5 -23t22.5 -33.5t8 -41t-8 -41t-22.5 -33t-33.5 -22.5t-41 -8.5zM237 405l39 -465h-226l38 465h149z" />
    <glyph glyph-name="cent" unicode="&#xa2;" horiz-adv-x="756" 
d="M431 486v-257h42q42 0 61 20t26 62h146q-8 -73 -39 -115t-71.5 -63.5t-84 -27.5t-75.5 -6h-5v-98h-106v98h-2q-23 0 -52.5 2.5t-59.5 11.5t-59 26t-51.5 46t-36.5 71.5t-14 101.5q0 89 29.5 141t72 78t89.5 33t82 7h2v98h106v-98h5q32 0 75.5 -6t84 -27.5t71.5 -63.5
t39 -115h-146q-5 38 -25 59.5t-62 21.5h-42zM325 486h-40q-27 0 -45 -10.5t-28 -28.5t-14 -41t-4 -48t4 -48t14 -41t28 -29t45 -11h40v257z" />
    <glyph glyph-name="sterling" unicode="&#xa3;" horiz-adv-x="979" 
d="M480 535q-30 0 -52 -9.5t-36 -26.5t-22.5 -39.5t-11.5 -48.5h288v-107h-286q5 -26 13.5 -48.5t18 -40t18.5 -30t15 -19.5q39 -9 73.5 -21.5t69 -24t72.5 -19t84 -7.5q51 0 88.5 8t63.5 18q31 11 53 26v-167q-21 -15 -52 -26q-27 -10 -68 -18t-99 -8q-66 0 -117.5 15
t-98 33.5t-93.5 33.5t-105 15q-59 0 -99.5 -10.5t-66.5 -23.5q-31 -14 -50 -33v157q12 12 31 24q17 10 42.5 20t60.5 16q-14 15 -31 46.5t-24 83.5h-109v107h108q6 69 28 118.5t53.5 83.5t69.5 54t77.5 30.5t77.5 14t68 3.5h23q30 0 67 -3t76 -13.5t77 -29.5t69.5 -51.5
t54 -80t30.5 -114.5h-202q-7 52 -34.5 82t-84.5 30h-128z" />
    <glyph glyph-name="yen" unicode="&#xa5;" horiz-adv-x="874" 
d="M824 715l-223 -342h134v-107h-203v-48h203v-107h-203v-110h-190v110h-203v107h203v48h-203v107h134l-223 342h212l175 -285l175 285h212z" />
    <glyph glyph-name="dieresis" unicode="&#xa8;" horiz-adv-x="615" 
d="M162 755q23 0 43 -7.5t35 -20.5t24 -31t9 -38t-9 -38t-24 -31.5t-35 -21t-43 -7.5t-43.5 7.5t-35.5 21t-24 31.5t-9 38t9 38t24 31t35.5 20.5t43.5 7.5zM454 560q-23 0 -43 7.5t-35 21t-24 31.5t-9 38t9 38t24 31t35 20.5t43 7.5t43 -7.5t35 -20.5t24 -31t9 -38t-9 -38
t-24 -31.5t-35 -21t-43 -7.5z" />
    <glyph glyph-name="copyright" unicode="&#xa9;" horiz-adv-x="793" 
d="M396 826q72 0 135 -16.5t110.5 -49.5t74.5 -82.5t27 -116.5t-27 -117t-74.5 -83t-110.5 -49.5t-135 -16.5t-135 16.5t-110 49.5t-74 83t-27 117t27 116.5t74 82.5t110 49.5t135 16.5zM396 362q56 0 104.5 12.5t84.5 37t57 62t21 87.5t-21 87t-57 62t-84.5 37t-104.5 12
q-55 0 -103.5 -12t-85 -37t-57.5 -62t-21 -87t21 -87.5t57.5 -62t85 -37t103.5 -12.5zM357 628q-28 0 -38 -20.5t-10 -46.5t9.5 -47t38.5 -21h79q22 0 32 10.5t14 32.5h87q-4 -38 -20.5 -60.5t-38 -34t-44 -14.5t-39.5 -3h-60q-18 0 -43 3.5t-47.5 17.5t-38 41.5t-15.5 74.5
t15.5 74t38 41t47.5 17.5t43 3.5h60q17 0 39.5 -3t44 -14.5t38 -33.5t20.5 -61h-87q-5 43 -46 43h-79z" />
    <glyph glyph-name="ordfeminine" unicode="&#xaa;" horiz-adv-x="658" 
d="M397 715l211 -420h-124l-43 91h-223l-43 -91h-125l212 420h135zM396 480l-67 143l-66 -143h133z" />
    <glyph glyph-name="registered" unicode="&#xae;" horiz-adv-x="793" 
d="M397 826q72 0 135 -16.5t110 -49.5t74 -82.5t27 -116.5t-27 -117t-74 -83t-110 -49.5t-135 -16.5t-135 16.5t-110.5 49.5t-74.5 83t-27 117t27 116.5t74.5 82.5t110.5 49.5t135 16.5zM397 362q55 0 103.5 12.5t85 37t57.5 62t21 87.5t-21 87t-57.5 62t-85 37t-103.5 12
t-104 -12t-85 -37t-57 -62t-21 -87t21 -87.5t57 -62t85 -37t104 -12.5zM563 597q0 -45 -21 -66t-48 -29l83 -76h-109l-72 69h-77v-69h-82v273h195q19 0 41.5 -2.5t42.5 -13t33.5 -30.5t13.5 -56zM429 564q29 0 38.5 8.5t9.5 24.5q0 17 -9.5 25.5t-38.5 8.5h-110v-67h110z
" />
    <glyph glyph-name="degree" unicode="&#xb0;" horiz-adv-x="492" 
d="M246 826q41 0 76.5 -9t62 -28t42 -47t15.5 -66t-15.5 -66.5t-42 -47t-62 -28t-76.5 -9.5t-76.5 9.5t-62 28t-42 47t-15.5 66.5t15.5 66t42 47t62 28t76.5 9zM246 603q41 0 69.5 17.5t28.5 55.5q0 37 -28.5 55t-69.5 18t-69.5 -18t-28.5 -55q0 -38 28.5 -55.5t69.5 -17.5z
" />
    <glyph glyph-name="plusminus" unicode="&#xb1;" horiz-adv-x="515" 
d="M313 499h152v-110h-152v-123h-111v123h-152v110h152v123h111v-123zM50 208h415v-110h-415v110z" />
    <glyph glyph-name="twosuperior" unicode="&#xb2;" horiz-adv-x="627" 
d="M577 549q0 -49 -23.5 -79.5t-60.5 -49.5t-82 -29.5t-88 -19.5t-78.5 -21t-53.5 -34h352v-124h-493v60q0 68 28 110t70.5 67.5t92 38t92 21.5t70.5 19t28 30q0 23 -27 34t-69 11q-64 0 -101 -21.5t-54 -47.5l-120 58q21 42 56.5 69.5t75 43.5t79 22.5t67.5 6.5
q119 0 179 -46.5t60 -118.5z" />
    <glyph glyph-name="threesuperior" unicode="&#xb3;" horiz-adv-x="689" 
d="M639 554q0 -30 -14.5 -56.5t-49.5 -44.5q35 -17 49.5 -43.5t14.5 -56.5q0 -22 -7 -50t-32 -53t-74.5 -41.5t-133.5 -16.5h-93q-84 0 -133.5 20t-75 49t-32.5 60.5t-7 53.5h139q0 -6 2.5 -15t10 -17t21.5 -14t37 -6h190q29 0 39 13t10 28q0 16 -12.5 28t-47.5 12h-199v99
h199q35 0 47.5 11.5t12.5 28.5q0 14 -10 27t-39 13h-213q-31 0 -40 -10.5t-9 -33.5h-139q0 28 7 59t32.5 57t74.5 43t133 17h95q84 0 133.5 -16.5t74.5 -41.5t32 -52.5t7 -50.5z" />
    <glyph glyph-name="acute" unicode="&#xb4;" horiz-adv-x="454" 
d="M181 560h-131l139 227h215z" />
    <glyph glyph-name="periodcentered" unicode="&#xb7;" horiz-adv-x="299" 
d="M149 662q21 0 39 -7t31.5 -19t21.5 -28t8 -34t-8 -34t-21.5 -27.5t-31.5 -18.5t-39 -7q-20 0 -38 7t-31.5 18.5t-21.5 27.5t-8 34t8 34t21.5 28t31.5 19t38 7z" />
    <glyph glyph-name="cedilla" unicode="&#xb8;" horiz-adv-x="569" 
d="M272 -56q84 0 139.5 -25.5t82 -64.5t25 -83.5t-31 -83.5t-87 -64.5t-141.5 -25.5q-51 0 -89.5 11t-65.5 25q-31 17 -54 37l63 101q17 -10 38 -17q18 -7 42 -12t52 -5q39 0 59 16t20 35.5t-20 35.5t-59 16h-132v276h122v-172h37z" />
    <glyph glyph-name="onesuperior" unicode="&#xb9;" horiz-adv-x="356" 
d="M237 715h69v-523h-139v372l-117 -57v117z" />
    <glyph glyph-name="ordmasculine" unicode="&#xba;" horiz-adv-x="635" 
d="M364 715q28 0 66 -5.5t72.5 -27t58.5 -63.5t24 -114t-24 -114t-58.5 -63.5t-72.5 -27t-66 -5.5h-92q-28 0 -66.5 5.5t-73 27t-58.5 63.5t-24 114t24 114t58.5 63.5t73 27t66.5 5.5h92zM394 401q23 0 37 9t22.5 23.5t11.5 33t3 38.5t-3 38.5t-11.5 33t-22.5 23.5t-37 9
h-153q-22 0 -36 -9t-22.5 -23.5t-11.5 -33t-3 -38.5t3 -38.5t11.5 -33t22.5 -23.5t36 -9h153z" />
    <glyph glyph-name="onequarter" unicode="&#xbc;" horiz-adv-x="1233" 
d="M787 715l-415 -714h-120l414 714h121zM168 192v372l-118 -57v117l187 91h69v-523h-138zM1183 358q0 -49 -23.5 -79.5t-61 -49.5t-82.5 -29.5t-88 -19.5t-78.5 -21t-52.5 -34h352v-124h-493v60q0 68 28 110t70.5 67.5t92 38t92 21.5t70.5 19t28 30q0 23 -27.5 34t-68.5 11
q-65 0 -101.5 -21.5t-53.5 -47.5l-120 58q21 43 56 70.5t75 43t79.5 22t67.5 7.5q118 0 178.5 -47t60.5 -119z" />
    <glyph glyph-name="onehalf" unicode="&#xbd;" horiz-adv-x="1212" 
d="M787 715l-415 -714h-120l415 714h120zM168 192v372l-118 -57v117l187 91h70v-523h-139zM1090 224h72v-124h-72v-99h-139v99h-367v74l297 350h209v-300zM951 415l-157 -191h157v191z" />
    <glyph glyph-name="threequarters" unicode="&#xbe;" horiz-adv-x="1515" 
d="M1091 715l-415 -714h-121l415 714h121zM639 353q0 -22 -7 -50t-32 -53t-74.5 -41.5t-133.5 -16.5h-93q-84 0 -133.5 20t-75 49t-32.5 60.5t-7 53.5h139q0 -6 2.5 -15t10 -17t21.5 -14t37 -6h190q29 0 39 13t10 28q0 16 -12.5 28t-47.5 12h-199v99h199q35 0 47.5 11.5
t12.5 28.5q0 14 -10 27t-39 13h-213q-31 0 -40 -10.5t-9 -33.5h-139q0 28 7 59t32.5 57t74.5 43t133 17h95q84 0 133.5 -16.5t74.5 -41.5t32 -52.5t7 -50.5q0 -30 -14.5 -56.5t-49.5 -44.5q35 -17 49.5 -43.5t14.5 -56.5zM1394 224h71v-124h-71v-99h-139v99h-367v74l296 350
h210v-300zM1255 415l-157 -191h157v191z" />
    <glyph glyph-name="questiondown" unicode="&#xbf;" horiz-adv-x="980" 
d="M700 444q-22 0 -41 8.5t-33 22.5t-22.5 33t-8.5 41t8.5 41t22.5 33.5t33 23t41 8.5t41 -8.5t33.5 -23t23 -33.5t8.5 -41t-8.5 -41t-23 -33t-33.5 -22.5t-41 -8.5zM332 -70q-85 0 -139.5 20.5t-86 53t-44 73t-12.5 80.5q0 63 22 108t64 74t102.5 42.5t136.5 13.5h385v-190
h-435q-36 0 -60.5 -9t-24.5 -32q0 -16 12.5 -30t53.5 -14h624v-190h-598z" />
    <glyph glyph-name="circumflex" unicode="&#x2c6;" horiz-adv-x="733" 
d="M503 560l-136 157l-137 -157h-180l232 255h170l231 -255h-180z" />
    <glyph glyph-name="caron" unicode="&#x2c7;" horiz-adv-x="734" 
d="M282 560l-232 255h180l137 -157l137 157h180l-232 -255h-170z" />
    <glyph glyph-name="ring" unicode="&#x2da;" horiz-adv-x="459" 
d="M230 560q-37 0 -70 12.5t-57.5 34t-38.5 50t-14 61.5t14 61.5t38.5 50t57.5 34t70 12.5t69.5 -12.5t57 -34t38.5 -50t14 -61.5t-14 -61.5t-38.5 -50t-57 -34t-69.5 -12.5zM230 805q-23 0 -39 -25.5t-16 -61.5t16 -61t39 -25t39 25t16 61t-16 61.5t-39 25.5z" />
    <glyph glyph-name="tilde" unicode="&#x2dc;" horiz-adv-x="641" 
d="M460 692q32 0 56 10t41 22q20 13 34 31v-133q-13 -17 -33 -31q-17 -11 -43.5 -21t-63.5 -10q-42 0 -74.5 12t-62.5 26.5t-60 26.5t-66 12q-38 0 -63.5 -12t-42.5 -26q-20 -17 -32 -39v132q12 22 32 39q17 15 42.5 27t63.5 12q45 0 78 -12t63 -27t60.5 -27t70.5 -12z" />
    <glyph glyph-name="endash" unicode="&#x2013;" horiz-adv-x="596" 
d="M50 418h496v-115h-496v115z" />
    <glyph glyph-name="emdash" unicode="&#x2014;" horiz-adv-x="709" 
d="M50 418h609v-115h-609v115z" />
    <glyph glyph-name="quoteleft" unicode="&#x2018;" horiz-adv-x="331" 
d="M167 823h114l-56 -261h-175z" />
    <glyph glyph-name="quoteright" unicode="&#x2019;" horiz-adv-x="331" 
d="M107 823h174l-116 -261h-115z" />
    <glyph glyph-name="quotesinglbase" unicode="&#x201a;" horiz-adv-x="332" 
d="M107 136h175l-117 -261h-115z" />
    <glyph glyph-name="quotedblleft" unicode="&#x201c;" horiz-adv-x="544" 
d="M437 562h-174l116 261h115zM281 823l-57 -261h-174l117 261h114z" />
    <glyph glyph-name="quotedblright" unicode="&#x201d;" horiz-adv-x="544" 
d="M281 823l-116 -261h-115l57 261h174zM319 823h175l-117 -261h-115z" />
    <glyph glyph-name="bullet" unicode="&#x2022;" horiz-adv-x="393" 
d="M50 360q0 27 11.5 50.5t31.5 41t47 27.5t57 10t57 -10t46.5 -27.5t31 -41t11.5 -50.5t-11.5 -50.5t-31 -41t-46.5 -27.5t-57 -10t-57 10t-47 27.5t-31.5 41t-11.5 50.5z" />
    <glyph glyph-name="Euro" unicode="&#x20ac;" horiz-adv-x="1056" 
d="M450 535q-41 0 -65.5 -16.5t-38.5 -44.5h393v-86h-414v-7l-1 -15v-15l1 -15v-8h414v-86h-393q14 -28 38.5 -45t65.5 -17h259q42 0 68 17t40 47l189 -52q-25 -65 -68.5 -103t-93 -57.5t-99 -25t-88.5 -5.5h-155q-28 0 -62.5 2.5t-70.5 11t-72 24.5t-67 43t-55.5 66
t-37.5 94h-87v86h76q-1 8 -1 15v15v15t1 15h-76v86h87q20 82 63.5 130t96.5 72.5t108 31.5t97 7h155q39 0 88.5 -5.5t99 -25t93 -57.5t68.5 -103l-189 -53q-14 31 -40 47.5t-68 16.5h-259z" />
    <glyph glyph-name="trademark" unicode="&#x2122;" horiz-adv-x="1056" 
d="M852 715h154v-357h-95v258l-122 -258h-122l-122 258v-258h-95v357h154l124 -256zM50 715h359v-90h-134v-267h-95v267h-130v90z" />
    </font>
</defs>
</svg>
